<svg xmlns="http://www.w3.org/2000/svg"><metadata>This SVG WebFont was generated by YouWorkForThem.
    Copyright (c) , 2014. All rights reserved.</metadata><defs><font horiz-adv-x="1343" id="ywftsvg"><font-face ascent="1544" bbox="-365 -567 2341 2202" cap-height="1376" descent="-504" font-family="" font-stretch="normal" font-weight="600" panose-1="2 0 5 3 4 0 0 2 0 4" underline-position="0" underline-thickness="0" unicode-range="U+0020-FB02" units-per-em="2048" x-height="961"/><missing-glyph horiz-adv-x="460"/><glyph glyph-name=".notdef" horiz-adv-x="460"/><glyph glyph-name="glyph1" horiz-adv-x="0"/><glyph glyph-name="glyph2" horiz-adv-x="681"/><glyph glyph-name="space" horiz-adv-x="460" unicode=" "/><glyph d="M410 1358q0 -67 -7.5 -268.5t-7.5 -616.5v-33h-200q-13 103 -13 699l-2 219h230zM158 118q0 56 40 97t96 41t97 -41t41 -97t-41 -95t-97 -39t-96 39t-40 95z" glyph-name="exclam" horiz-adv-x="589" unicode="!"/><glyph d="M690 1475l-33 -523h-155l-35 523h223zM328 1475l-33 -523h-154l-35 523h222z" glyph-name="quotedbl" horiz-adv-x="794" unicode="&quot;"/><glyph d="M70 385v158h231l57 291h-211v155h238l66 352h163l-65 -352h237l68 352h166l-70 -352h199v-155h-223l-58 -291h207v-158h-235l-72 -367h-164l68 367h-236l-69 -367h-166l71 367h-202zM463 543h239l58 291h-240z" glyph-name="numbersign" horiz-adv-x="1212" unicode="#"/><glyph d="M471 -102v145q-166 6 -291 51l21 207q106 -92 295 -92q92 0 143 45t51 127q0 113 -190 219q-70 39 -109 65.5t-110.5 93.5t-71.5 203t71.5 223t204.5 120v151h152v-137q129 -6 235 -37v-201q-94 74 -254 74q-80 0 -129 -42t-49 -115t62.5 -122t136.5 -94t85 -53t44 -30.5 t45 -36t38 -38t36 -45t29.5 -57.5t19.5 -112q0 -135 -83 -228.5t-226 -124.5v-159h-156z" glyph-name="dollar" horiz-adv-x="1101" unicode="$"/><glyph d="M417 1384q138 0 232 -98t94 -247.5t-95 -250t-232 -100.5t-232.5 100t-95.5 248t95.5 248t233.5 100zM1260 682q137 0 232 -99.5t95 -247.5t-95 -248.5t-232.5 -100.5t-231.5 98t-94 249t94.5 250t231.5 99zM1235 1372h188l-983 -1372h-186zM415 838q71 0 115.5 56 t44.5 141t-44.5 140.5t-114.5 55.5t-115 -54.5t-45 -141.5t44 -142t115 -55zM1259.5 526q-71.5 0 -115.5 -54t-44 -140t44 -141.5t116 -55.5t116.5 56.5t44.5 141.5t-45 139t-116.5 54z" glyph-name="percent" horiz-adv-x="1675" unicode="%"/><glyph d="M535 -18q-188 0 -308.5 111.5t-120.5 283.5q0 221 289 385q-76 74 -110.5 139.5t-34.5 151.5q0 127 98 214t242 87t239 -85t95 -212q0 -88 -54.5 -161t-167.5 -151q129 -119 283 -288q160 175 215 286h227q-139 -209 -315 -413q123 -135 281 -140l6 -200 q-145 0 -235.5 39t-200.5 141q-199 -188 -428 -188zM563 162q131 0 275 143q-162 188 -328 342q-184 -113 -184 -260q0 -96 68.5 -160.5t168.5 -64.5zM446 1057q0 -88 132 -201q164 88 163 201q0 59 -40.5 101t-106.5 42t-107 -41t-41 -102z" glyph-name="ampersand" horiz-adv-x="1484" unicode="&amp;"/><glyph d="M141 950l-35 523h222q-10 -105 -35 -523h-152z" glyph-name="quotesingle" horiz-adv-x="436" unicode="'"/><glyph d="M102 562q0 642 414 1017q14 -10 57 -72.5t56 -70.5q-297 -338 -297 -874t295 -873l-111 -142q-414 373 -414 1015z" glyph-name="parenleft" horiz-adv-x="702" unicode="("/><glyph d="M377 562q0 533 -297 874q14 10 55 71.5t55 71.5q414 -371 414 -1017t-414 -1015l-110 142q297 340 297 873z" glyph-name="parenright" horiz-adv-x="702" unicode=")"/><glyph d="M489 969q-57 -106 -122 -267q-137 80 -152 89q74 92 174 231q-127 -7 -285 -27v170q133 -18 285 -26q-98 147 -170 233q25 14 74 44t74 44q29 -82 120 -266q78 160 119 266q25 -14 75 -44t75 -44q-49 -53 -172 -233q246 16 286 28v-174q-162 20 -284 29q41 -59 174 -236 q-100 -56 -152 -81q-4 8 -119 264z" glyph-name="asterisk" horiz-adv-x="1005" unicode="*"/><glyph d="M449 61v375h-355v174h355v375h198v-375h354v-174h-354v-375h-198z" glyph-name="plus" horiz-adv-x="1097" unicode="+"/><glyph d="M184 102q0 78 -14 148q68 10 225 41q14 -57 15 -133q-1 -257 -185 -480l-137 64q96 182 96 360z" glyph-name="comma" horiz-adv-x="518" unicode=","/><glyph d="M84 397v197h549v-197h-549z" glyph-name="hyphen" horiz-adv-x="716" unicode="-"/><glyph d="M125 124q0 60 44 105t103.5 45t102.5 -43t43 -103t-44.5 -104.5t-103.5 -45.5t-102 42.5t-43 103.5z" glyph-name="period" horiz-adv-x="516" unicode="."/><glyph d="M680 1434l-455 -1506h-209q342 1120 459 1506h205z" glyph-name="slash" horiz-adv-x="698" unicode="/"/><glyph d="M569.5 1378q225.5 0 351.5 -196.5t126 -502.5t-126.5 -500.5t-352.5 -194.5t-350 194.5t-124 503.5t125 502.5t350.5 193.5zM330 679q0 -243 61 -377t177 -134t179.5 136t63.5 375t-63.5 375t-179.5 136t-177 -134t-61 -377z" glyph-name="zero" horiz-adv-x="1140" unicode="0"/><glyph d="M715 211q0 -162 4 -211h-234q4 82 4 213v903q-170 -70 -278 -123q-3 24 -9.5 53t-13.5 69t-12 61q287 123 426 194h113v-1159z" glyph-name="one" horiz-adv-x="1013" unicode="1"/><glyph d="M131 0v137q260 227 426 453q78 104 111.5 174t33.5 172t-69.5 167.5t-186.5 65.5q-199 0 -292 -112v237q127 82 337 82t328.5 -111.5t118.5 -314.5t-186 -432q-113 -139 -295 -323h260q152 0 268 10v-205h-854z" glyph-name="two" horiz-adv-x="1085" unicode="2"/><glyph d="M418 784q104 0 176 56.5t72 145.5t-58.5 143.5t-156.5 54.5q-150 0 -275 -84v207q146 67 322 67t287.5 -95t111.5 -259q0 -109 -62.5 -188.5t-177.5 -120.5q129 -35 204 -124t75 -208q0 -180 -128 -288.5t-345 -108.5q-168 0 -291 47v204q106 -63 240 -63t205 65.5 t71 174.5q0 20 -6 34q-12 74 -82 119t-152 45t-118 -4v182l41 -2h47z" glyph-name="three" horiz-adv-x="1101" unicode="3"/><glyph d="M614 0q7 27 9 162v209h-574v110q72 94 234 299t276.5 352.5t188.5 239.5h92v-835q164 0 221 4v-172q-49 2 -221 2v-207q0 -84 10 -164h-236zM623 537q0 315 2 471q-158 -215 -176 -239t-173 -232h347z" glyph-name="four" horiz-adv-x="1105" unicode="4"/><glyph d="M438 -20q-168 0 -303 57v211q115 -76 253 -76t223 67.5t85 180.5q0 18 -6 37q-12 92 -91 149.5t-213 57.5t-208 -27q2 14 33 319t37 406q94 -4 160 -4h294q20 0 193 6v-203q-115 4 -195 4h-272q-8 -55 -21.5 -191t-15.5 -149q47 10 101 11q205 0 326.5 -113t121.5 -303 t-141.5 -315t-360.5 -125z" glyph-name="five" horiz-adv-x="1085" unicode="5"/><glyph d="M612 858q178 0 300 -130t122 -311t-137 -306t-328 -125t-341 139t-150 321t46 320.5t124 239t217 219.5t174 149h334q-535 -309 -625 -596q93 67 153 73.5t111 6.5zM293 430.5q0 -108.5 74.5 -187.5t189.5 -79t181.5 77t66.5 183t-76 186t-181 80t-180 -75.5t-75 -184z " glyph-name="six" horiz-adv-x="1107" unicode="6"/><glyph d="M307 1358h486q43 0 110.5 1t93.5 1q-10 -23 -43.5 -94.5t-63.5 -141.5t-240 -542q-210 -471 -261 -582h-248q23 31 52 91t43 83q159 332 450 985h-412q-106 0 -170 -6q0 97 -14 209q55 -4 217 -4z" glyph-name="seven" horiz-adv-x="1060" unicode="7"/><glyph d="M145 1014q0 158 120 260t298 102t294 -102.5t116 -247.5q0 -195 -207 -309q117 -49 183.5 -137t66.5 -203q0 -172 -130 -281.5t-328 -109.5t-326 105.5t-128 275.5q0 115 67 207t181 139q-207 100 -207 301zM330 390q0 -93 64.5 -154.5t164.5 -61.5t167 61.5t67 154.5 t-73 154.5t-185 84.5q-88 -18 -146.5 -82t-58.5 -157zM362 1003.5q0 -81.5 60.5 -137t159.5 -71.5q76 18 125 75.5t49 135.5t-55.5 133t-141.5 55t-141.5 -54.5t-55.5 -136z" glyph-name="eight" horiz-adv-x="1118" unicode="8"/><glyph d="M498 502q-178 0 -300 130t-122 311t137 306t328 125t341 -139t150 -324q0 -260 -88 -422.5t-261 -310.5t-208 -178h-334q514 297 621 582q-93 -67 -153 -73.5t-111 -6.5zM817 929.5q0 108.5 -74.5 187.5t-189.5 79t-181.5 -77t-66.5 -183t76 -186t181 -80t180 75.5 t75 184z" glyph-name="nine" horiz-adv-x="1103" unicode="9"/><glyph d="M123 112q0 58 41 100t99 42t99 -42t41 -100t-42 -99.5t-99 -41.5t-98 41.5t-41 99.5zM123 787q0 58 41 99.5t98 41.5t99 -42t42 -99.5t-40.5 -98.5t-98.5 -41t-99.5 41t-41.5 99z" glyph-name="colon" horiz-adv-x="524" unicode=":"/><glyph d="M184 102q0 78 -14 148q68 10 225 41q14 -57 15 -133q-1 -257 -185 -480l-137 64q96 182 96 360zM127 787q0 58 41 99.5t98.5 41.5t99.5 -42t42 -99.5t-41 -98.5t-99 -41t-99.5 41t-41.5 99z" glyph-name="semicolon" horiz-adv-x="552" unicode=";"/><glyph d="M362 526q16 -8 629 -297v-204l-889 456v88q37 18 237.5 123t651.5 336v-203q-53 -25 -157 -74t-180 -85t-292 -140z" glyph-name="less" horiz-adv-x="1128" unicode="&lt;"/><glyph d="M96 242v176h908v-176h-908zM96 631v172h908v-172h-908z" glyph-name="equal" horiz-adv-x="1097" unicode="="/><glyph d="M764 532l-588 299v203q109 -55 418 -225q193 -102 422 -229v-93q-215 -111 -840 -454v205l264 135q217 109 324 159z" glyph-name="greater" horiz-adv-x="1128" unicode="&gt;"/><glyph d="M516 403h-207q0 111 11.5 171t55.5 118t92 110t67.5 75.5t21.5 25.5q53 55 53 96q0 92 -65 135.5t-131 43.5t-135.5 -37t-118.5 -97v222q111 106 289 106q94 0 175 -27.5t144 -107.5t63 -182t-33 -153t-39 -57l-31 -31q-26 -26 -97 -89.5t-93 -127t-22 -194.5zM283 120 q0 56 42 98t99 42t98 -41t41 -97t-42 -95t-99 -40t-98 38t-41 95z" glyph-name="question" horiz-adv-x="935" unicode="?"/><glyph d="M1253 205q98 0 157.5 90t59.5 246q0 250 -159.5 402.5t-428.5 152.5t-451.5 -192t-182.5 -470t172 -448t430 -170q174 0 280 47q0 -18 5 -72v-76q-129 -35 -285 -34q-322 0 -545 214.5t-223 546.5t233.5 561.5t563 229.5t545.5 -184.5t216 -491.5q0 -219 -110.5 -358.5 t-290.5 -139.5q-92 0 -153.5 46.5t-63.5 132.5q-100 -168 -268 -168q-119 0 -197 94t-78 252t105.5 288t273.5 130q119 0 176 -93q10 63 10 82q157 -18 189 -20q-10 -98 -37.5 -257.5t-30.5 -221.5q-4 -119 88 -119zM889 688q-92 0 -156.5 -78t-64.5 -176t41 -149.5 t108 -51.5q131 0 184 109l17 291q-20 25 -60 40t-69 15z" glyph-name="at" horiz-adv-x="1722" unicode="@"/><glyph d="M1329 0h-268q-6 18 -141 352h-529q-14 -37 -68.5 -169.5t-68.5 -182.5h-240q53 109 160 354l444 1041h91l471 -1084q57 -135 149 -311zM461 526h387l-195 502z" glyph-name="A" unicode="A"/><glyph d="M555 0h-401q6 129 6 362v619q0 313 -4 395h376q186 0 306 -91t120 -247q0 -94 -51 -169.5t-133 -110.5q121 -33 197 -128t76 -222q0 -188 -136.5 -298t-355.5 -110zM811 404q0 110 -69.5 176.5t-184.5 66.5h-164v-477h148q127 0 198.5 62t71.5 172zM393 1210v-403h133 q78 0 141.5 60.5t63.5 146.5t-58.5 141t-160.5 55h-119z" glyph-name="B" horiz-adv-x="1148" unicode="B"/><glyph d="M821 176q205 0 346 90v-229q-156 -59 -360 -60q-309 0 -510 200t-201 504t206 511t515 207q166 0 346 -62v-235q-131 94 -339 94t-349 -147.5t-141 -363.5t141 -362.5t346 -146.5z" glyph-name="C" horiz-adv-x="1273" unicode="C"/><glyph d="M584 0h-428q6 139 6 375v669q0 215 -6 332h430q303 0 501.5 -191.5t198.5 -494.5t-203.5 -496.5t-498.5 -193.5zM393 1184v-991h170q221 0 354.5 139t133.5 358t-137.5 356.5t-352.5 137.5h-168z" glyph-name="D" horiz-adv-x="1386" unicode="D"/><glyph d="M391 807h170q207 0 285 4v-197q-78 4 -285 4h-170v-425h187q240 0 319 2v-197q-80 2 -315 2h-426q6 92 6 340v692q0 205 -6 344h460q184 0 279 4q-27 -145 -35 -200q-88 4 -264 4t-205 -2v-375z" glyph-name="E" horiz-adv-x="1015" unicode="E"/><glyph d="M162 360v656q0 217 -6 360h405q244 0 336 6l-35 -202q-68 4 -313 4h-156v-408h150q201 0 282 4v-198q-131 4 -282 4h-150v-232q0 -245 4 -354h-241q6 143 6 360z" glyph-name="F" horiz-adv-x="978" unicode="F"/><glyph d="M1233 272v-219q-193 -78 -410 -78q-317 0 -522 195t-205 507t205 516t530 204q197 0 361 -60v-227q-154 88 -364 88t-352 -143.5t-142 -363.5t136 -369.5t359 -149.5q117 0 183 37v168q0 178 -4 264h231q-6 -168 -6 -369z" glyph-name="G" horiz-adv-x="1388" unicode="G"/><glyph d="M391 815h668v223q0 211 -6 338h239q-6 -190 -6 -354v-786q0 -27 6 -236h-239q6 111 6 295v332h-668v-332q0 -211 6 -295h-239q4 160 4 305v717q0 190 -4 354h239q-6 -117 -6 -440v-121z" glyph-name="H" horiz-adv-x="1449" unicode="H"/><glyph d="M399 997v-647q0 -254 4 -350h-241q6 131 6 350v647q0 231 -6 379h241q-4 -64 -4 -379z" glyph-name="I" horiz-adv-x="565" unicode="I"/><glyph d="M430 1022v-1016q0 -205 -108.5 -326.5t-301.5 -121.5q-94 0 -182 24v209q66 -37 161 -37t147.5 62.5t52.5 171.5v1034q0 260 -6 354h241q-4 -151 -4 -354z" glyph-name="J" horiz-adv-x="593" unicode="J"/><glyph d="M393 344q0 -229 4 -344h-241q4 90 4 342v692q0 242 -4 342h241q-4 -104 -4 -340v-301l328 410q113 143 172 231h262q-20 -25 -60.5 -77.5t-60.5 -77.5l-413 -506l430 -504q106 -125 188 -211h-315q-70 98 -133 172l-398 471v-299z" glyph-name="K" horiz-adv-x="1257" unicode="K"/><glyph d="M393 195h230q168 0 303 4v-203q-84 4 -314 4h-456q6 233 6 375v624q0 223 -6 377h239l-2 -190v-991z" glyph-name="L" horiz-adv-x="980" unicode="L"/><glyph d="M1335 0q0 123 -10 301l-33 643q-311 -571 -415 -768h-60l-422 768l-41 -637q-4 -70 -7 -176t-5 -131h-240q4 53 14.5 170t14.5 180l72 1034h166l481 -880l477 880h164l59 -1056q8 -182 25 -328h-240z" glyph-name="M" horiz-adv-x="1681" unicode="M"/><glyph d="M379 287q0 -168 6 -287h-231q4 84 4 293v739q0 233 -4 363h98l827 -963v596q0 217 -8 348h242q-8 -154 -8 -340v-747q0 -205 2 -297h-103l-825 969v-674z" glyph-name="N" horiz-adv-x="1466" unicode="N"/><glyph d="M807 -25q-303 0 -507 204t-204 508t204 507t506 203t507 -205t205 -507t-204 -506t-507 -204zM807 168q205 0 338 148.5t133 369.5t-134 369.5t-337 148.5t-338 -146.5t-135 -370.5t134 -371.5t339 -147.5z" glyph-name="O" horiz-adv-x="1613" unicode="O"/><glyph d="M393 502v-154q0 -217 6 -348h-243q6 127 6 360v701q0 205 -6 315h358q231 0 364.5 -118.5t133.5 -317.5t-132 -318.5t-372 -119.5h-115zM393 1196v-516h105q123 0 199.5 71.5t76.5 187.5t-74.5 186.5t-201.5 70.5h-105z" glyph-name="P" horiz-adv-x="1097" unicode="P"/><glyph d="M804 1397q302 0 508 -205t206 -504q0 -223 -114 -388t-296 -230q100 -96 224 -150.5t222 -54.5t158 16l29 -170q-106 -31 -211 -30q-193 0 -346.5 76.5t-309.5 242.5q-43 -6 -108 -6q-276 0 -474 202.5t-198 498.5t204 499t506 203zM332 687q0 -222 135 -370.5 t339 -148.5t338 147.5t134 368.5t-135 370.5t-339 149.5t-338 -147.5t-134 -369.5z" glyph-name="Q" horiz-adv-x="1613" unicode="Q"/><glyph d="M393 549v-187q0 -236 6 -362h-243q6 84 6 365v675q0 262 -6 336h368q213 0 349.5 -104.5t136.5 -300.5q0 -272 -258 -357l188 -282q90 -135 254 -332h-303l-338 549h-160zM393 1192v-473h123q106 0 182 62.5t76 174.5t-73.5 174t-186.5 62h-121z" glyph-name="R" horiz-adv-x="1218" unicode="R"/><glyph d="M387 1052q0 -74 52.5 -128t184.5 -136t189 -145q113 -117 113 -283t-131 -276.5t-334 -110.5t-363 80q25 106 54 215q117 -111 297 -110q102 0 165.5 49t63.5 132t-56.5 142.5t-140.5 108.5t-126 78.5t-125 107t-83 245.5q0 167 119 273.5t318 106.5q147 0 284 -58v-213 q-111 86 -276 87q-92 0 -148.5 -45.5t-56.5 -119.5z" glyph-name="S" horiz-adv-x="1036" unicode="S"/><glyph d="M831 1182h-112q-2 -119 -2 -387v-441q0 -236 6 -354h-244q6 139 6 354v629q0 80 -4 199h-114q-184 0 -320 -6v200h791q254 0 329 2q-5 -43 -16 -202q-137 6 -320 6z" glyph-name="T" horiz-adv-x="1208" unicode="T"/><glyph d="M387 1018v-486q0 -174 85 -265t230 -91t228.5 94.5t83.5 266.5v481q0 266 -4 358h237q-2 -96 -2 -360v-484q0 -266 -147.5 -409t-400.5 -143t-397 148t-144 404v484q0 184 -4 360h241q-6 -92 -6 -358z" glyph-name="U" horiz-adv-x="1398" unicode="U"/><glyph d="M676 383l399 993h246q-12 -29 -56 -117t-69 -143l-491 -1143h-74l-484 1123q-74 174 -135 280h264z" glyph-name="V" horiz-adv-x="1335" unicode="V"/><glyph d="M1905 1376l-492 -1380h-162q-98 279 -295 840q-274 -766 -301 -840h-159q-37 104 -244 672.5t-256 707.5h242q57 -168 170.5 -504.5t171.5 -504.5q10 10 32 43q9 24 102 301.5t134 396.5q-66 180 -103 268h244q102 -303 328 -950q6 -10 18.5 -29.5t18.5 -29.5 q131 408 319 1009h232z" glyph-name="W" horiz-adv-x="1918" unicode="W"/><glyph d="M614 879l304 497h260q-72 -94 -156 -222t-289 -447q330 -532 461 -707h-276q-12 20 -74 122t-244 392q-148 -242 -198 -320t-79.5 -130t-37.5 -64h-265q88 113 146 200t176.5 272t140.5 218q-157 255 -444 686h278q63 -117 153 -260t144 -237z" glyph-name="X" horiz-adv-x="1214" unicode="X"/><glyph d="M506 322v274q-53 86 -160.5 259t-163.5 266t-166 255h275q27 -57 122 -215t216 -364q64 109 162 272q98 164 176 307h258q-16 -29 -63.5 -99.5t-110.5 -174.5t-316 -506v-274q0 -187 6 -322h-239q4 197 4 322z" glyph-name="Y" horiz-adv-x="1241" unicode="Y"/><glyph d="M768 193q233 0 311 4v-199q-78 2 -311 2h-709q70 117 340.5 600t327.5 582h-293q-254 0 -325 -4q-12 135 -17 200q94 -2 363 -2h628q-129 -233 -159 -286l-516 -897h360z" glyph-name="Z" horiz-adv-x="1153" unicode="Z"/><glyph d="M543 -410h-387q4 119 4 228v1503q0 106 -4 229h344q106 0 151 2v-174q-86 4 -143 4h-154v-1624h156q100 0 141 4v-176q-30 4 -108 4z" glyph-name="bracketleft" horiz-adv-x="716" unicode="["/><glyph d="M475 -72q-51 168 -147 487.5t-308 1018.5h205q29 -92 199 -651.5t260 -854.5h-209z" glyph-name="backslash" horiz-adv-x="704" unicode="\"/><glyph d="M209 -410q-102 0 -141 -4v176q43 -4 143 -4h154v1624h-154q-61 0 -143 -4v174q43 -2 141 -2h354q-4 -59 -4 -217v-1526q0 -162 4 -217h-354z" glyph-name="bracketright" horiz-adv-x="716" unicode="]"/><glyph d="M90 834l395 596h78q68 -100 200 -298t200 -298h-215q-110 192 -130 226t-50.5 90t-47.5 85q-40 -76 -225 -401h-205z" glyph-name="asciicircum" horiz-adv-x="1054" unicode="^"/><glyph d="M14 -242v111h922v-111h-922z" glyph-name="underscore" horiz-adv-x="948" unicode="_"/><glyph d="M293 1085l-223 314h229q18 -35 94 -159t92 -155h-192z" glyph-name="grave" horiz-adv-x="888" unicode="`"/><glyph d="M481 981q213 0 303 -108.5t90 -337.5v-224q0 -199 39 -311h-215q-8 70 -12 106q-115 -127 -301 -126q-137 0 -225 82.5t-88 216.5q0 86 37.5 148t131 117.5t429.5 55.5v31q0 82 -63.5 132t-151.5 50q-131 0 -254 -82l-74 158q141 92 354 92zM281 283q0 -63 45 -104.5 t105 -41.5t129 31t112 76v202l-166 -6q-225 -6 -225 -157z" glyph-name="a" horiz-adv-x="989" unicode="a"/><glyph d="M602 168q133 0 202.5 84t69.5 232t-78.5 228.5t-207.5 80.5t-238 -113v-418q119 -94 252 -94zM133 1360h-108l57 125h276q-8 -49 -8 -139v-455q129 94 277 94q227 0 352 -143.5t125 -356.5t-133 -354t-348 -141q-152 0 -291 96l-70 -74l-129 -14v1362z" glyph-name="b" horiz-adv-x="1167" unicode="b"/><glyph d="M602 -12q-231 0 -380.5 137t-149.5 353t149.5 358.5t378.5 142.5q141 0 270 -57v-213q-113 82 -256 82t-235 -90.5t-92 -224.5t90 -220t233 -86t262 82v-207q-111 -57 -270 -57z" glyph-name="c" horiz-adv-x="993" unicode="c"/><glyph d="M1032 1260v-1041q0 -80 4 -207q-68 -6 -188 -14q-24 90 -29 123q-100 -127 -280 -127q-217 0 -340 139t-123 352t127 354.5t342 141.5q150 0 270 -84v424h-110q35 70 59 127h280q-12 -160 -12 -188zM578 166q128 0 237 113v430q-113 96 -245 96t-206.5 -90t-74.5 -239 t80.5 -229.5t208.5 -80.5z" glyph-name="d" horiz-adv-x="1165" unicode="d"/><glyph d="M965 568q0 -56 -7 -124h-682q8 -137 89 -210.5t226 -73.5t318 96v-176q-152 -96 -336 -96q-229 0 -367 134t-138 357t120.5 365.5t337.5 142.5q115 0 203 -39t137 -104.5t74 -140.5t25 -131zM527 807q-114 0 -179 -71.5t-76 -155.5h492q-2 102 -62.5 164.5t-174.5 62.5z " glyph-name="e" horiz-adv-x="1024" unicode="e"/><glyph d="M59 782v179h156v118q0 188 87 294t251 106q74 0 205 -29l-31 -180q-55 28 -133 28t-120 -59t-42 -152v-126h240l-33 -179h-207v-575q0 -152 4 -207h-225q4 176 4 207v575h-156z" glyph-name="f" horiz-adv-x="704" unicode="f"/><glyph d="M482 -457q-226 0 -343 39q13 36 56 164q98 -22 273 -22t234.5 86t59.5 274q-113 -98 -268 -98q-201 0 -327 131t-126 349t123 365.5t313 147.5q80 0 163 -33t128 -88v103h229q-24 -96 -36 -150l4 -780q0 -236 -128.5 -362t-354.5 -126zM528 807q-119 0 -193.5 -98.5 t-74.5 -240.5t73 -227t193 -85t234 94v448q-82 109 -232 109z" glyph-name="g" horiz-adv-x="1044" unicode="g"/><glyph d="M1047 543v-361q0 -113 6 -182h-238q6 109 6 305v223q0 266 -219 267q-70 0 -137.5 -50.5t-102.5 -128.5v-438q0 -43 7 -178h-236q6 80 6 209v1132h-90q10 23 57 125h265q-8 -66 -9 -206v-429q124 145 310 145t280.5 -114t94.5 -319z" glyph-name="h" horiz-adv-x="1173" unicode="h"/><glyph d="M145 207v543q0 168 -8 211h238q-6 -74 -6 -207v-547q0 -141 6 -207h-236q6 74 6 207zM137 1253.5q0 53.5 38 91t91 37.5t91 -37.5t38 -91t-38 -90.5t-91 -37t-91 37t-38 90.5z" glyph-name="i" horiz-adv-x="512" unicode="i"/><glyph d="M137 1253.5q0 53.5 37 91t91 37.5t92 -37.5t38 -91t-38 -91.5t-92 -38t-91 38t-37 91.5zM375 750v-644q0 -299 -73 -440t-271 -141h-160v182h123q160 0 160 262v779q0 147 -9 213h236q-6 -72 -6 -211z" glyph-name="j" horiz-adv-x="526" unicode="j"/><glyph d="M358 199q0 -137 2 -199h-229q4 102 4 211v1130h-90q23 47 55 125h260q-4 -102 -4 -204v-703l387 402h287q-49 -45 -207.5 -197t-259.5 -240q51 -53 226.5 -238t281.5 -286h-285q-281 289 -428 442v-243z" glyph-name="k" horiz-adv-x="1087" unicode="k"/><glyph d="M352 1280v-1073q0 -166 6 -207h-223q4 41 4 207v1136h-96l57 125h260q-8 -41 -8 -188z" glyph-name="l" horiz-adv-x="524" unicode="l"/><glyph d="M663 979q182 0 250 -170q125 170 312 170q147 0 232 -98.5t85 -278.5v-403q0 -113 6 -199h-235q4 80 4 223v352q0 215 -156 216q-131 0 -209 -164v-428q0 -72 4 -199h-233q4 72 4 223v357q0 211 -156 211q-63 0 -118.5 -43t-90.5 -121v-402q0 -164 3 -225h-232 q2 80 2 203v633h-98l61 125h254l8 -136q121 154 303 154z" glyph-name="m" horiz-adv-x="1669" unicode="m"/><glyph d="M139 836h-96q8 12 59 125h248q4 -29 10 -132q123 150 320 150q354 0 354 -434v-314q0 -170 6 -231h-233q4 76 4 238v344q0 104 -57.5 156.5t-143.5 52.5t-150.5 -47.5t-99.5 -125.5v-380q0 -170 5 -238h-232q6 104 6 238v598z" glyph-name="n" horiz-adv-x="1161" unicode="n"/><glyph d="M76 480q0 208 142 353.5t344 145.5t342 -145.5t140 -354.5t-140 -351t-344 -142t-344 143t-140 351zM559 786q-115 0 -188.5 -95t-73.5 -218t74.5 -211t190.5 -88t189.5 88t73.5 219t-75.5 218t-190.5 87z" glyph-name="o" horiz-adv-x="1120" unicode="o"/><glyph d="M600 166q276 0 277 321q0 158 -74 238t-187 80q-149 0 -258 -113v-430q117 -96 242 -96zM668 981q196 0 313 -140.5t117 -350.5t-125 -354t-344 -144q-150 0 -275 82v-520q-56 -9 -213 -39v1321h-108l57 125h272q-4 -70 -4 -107q114 127 310 127z" glyph-name="p" horiz-adv-x="1171" unicode="p"/><glyph d="M1030 745v-974q0 -139 6 -250h-231q4 139 4 252v344q-111 -131 -299 -131t-311 142t-123 353t121.5 353.5t318.5 142.5q158 0 295 -98v82h227q-8 -148 -8 -216zM579 795q-130 0 -205 -88.5t-75 -223.5t73.5 -225t192.5 -90q63 0 133 24.5t113 67.5v459q-102 76 -232 76z " glyph-name="q" horiz-adv-x="1171" unicode="q"/><glyph d="M631 981q61 0 110 -25q-8 -35 -22 -106.5t-21 -106.5q-49 25 -103 25t-120.5 -42t-105.5 -95l4 -156v-266q0 -86 4 -209h-234q4 139 4 211v623h-94l58 127h227q2 -29 7 -95.5t7 -97.5q119 213 279 213z" glyph-name="r" horiz-adv-x="761" unicode="r"/><glyph d="M326 713q0 -41 42 -74t101 -61.5t119.5 -63.5t102.5 -100.5t42 -153.5q0 -133 -97 -208t-270 -75t-290 66q18 102 39 193q117 -94 245 -95q68 0 112 34t44 77t-42 78t-102.5 64.5t-119.5 67.5t-101 101.5t-42 145.5q0 123 92 196.5t254 73.5q106 0 241 -45v-191 q-117 72 -231 72q-47 0 -93 -30.5t-46 -71.5z" glyph-name="s" horiz-adv-x="821" unicode="s"/><glyph d="M416 367q0 -199 126 -199q64 0 113 29q13 -78 35 -166q-76 -47 -198 -47q-268 0 -293 295q-4 57 -4 92v411h-148v179h148v210q75 15 225 50q-4 -115 -4 -189v-71h270l-31 -179h-239v-415z" glyph-name="t" horiz-adv-x="755" unicode="t"/><glyph d="M358 743v-176q0 -223 37 -312t160 -89q76 0 128 49t69 127v444q0 121 -2 175h233q-4 -98 -4 -168v-590q0 -129 20 -203h-200q-6 23 -15.5 67t-13.5 62q-86 -143 -285 -143q-164 0 -258 105.5t-94 305.5v437h-92l59 127h262q-4 -143 -4 -218z" glyph-name="u" horiz-adv-x="1085" unicode="u"/><glyph d="M10 961h260q14 -41 64 -166l174 -457l174 461q32 82 57 162h238q-63 -121 -100 -205l-336 -776h-92l-340 778q-56 127 -99 203z" glyph-name="v" horiz-adv-x="987" unicode="v"/><glyph d="M319 770l152 -422l215 613h109q14 -39 103 -281t122 -338l151 467q39 125 48 152h229q-53 -117 -96 -236l-273 -741h-90l-256 665l-250 -665h-96l-287 749q-20 53 -28 72l-62 156h250q22 -87 59 -191z" glyph-name="w" horiz-adv-x="1456" unicode="w"/><glyph d="M930 961q-83 -104 -324 -476q231 -362 322 -485h-244q-143 217 -213 326q-150 -225 -211 -326h-246q68 86 334 479q-225 346 -323 482h256q47 -82 204 -326q6 10 205 326h240z" glyph-name="x" horiz-adv-x="952" unicode="x"/><glyph d="M248 -397h-162l33 172q94 0 125 8q63 0 178 262q-197 442 -412 916h262q72 -193 263 -672q188 473 249 672h246q-356 -838 -407 -949l-74 -159q-115 -250 -301 -250z" glyph-name="y" horiz-adv-x="1044" unicode="y"/><glyph d="M231 961h617q-78 -129 -232.5 -388.5t-232.5 -388.5h272q74 0 185 4v-190q-43 2 -148 2h-645q156 256 467 772h-270q-104 0 -152 -4l-6 195q43 -2 145 -2z" glyph-name="z" horiz-adv-x="892" unicode="z"/><glyph d="M442 1145v-25l9 -233q0 -125 -46.5 -203t-125.5 -102q170 -70 170 -332l-7 -250q0 -129 60.5 -180t187.5 -51q-4 -111 -8 -175q-22 0 -131 7q-309 27 -309 417l6 265q0 205 -185 211v168q184 6 185 217v26l-6 242q0 362 303 395q10 2 137 8l10 -174q-127 0 -188.5 -54 t-61.5 -177z" glyph-name="braceleft" horiz-adv-x="753" unicode="{"/><glyph d="M158 -438v1994h184v-1994h-184z" glyph-name="bar" horiz-adv-x="497" unicode="|"/><glyph d="M86 1378q-16 0 -27 -2l13 174l37 2l20 -2h12q186 0 277.5 -110.5t91.5 -311.5l-6 -233q0 -227 184 -233v-168q-184 -6 -184 -209l8 -267q0 -387 -301 -415q-8 0 -131 -9q-14 27 -21 175q145 0 197.5 58t52.5 212l-6 217q0 141 44 213t126 113q-82 23 -127 106.5 t-45 214.5l6 242q0 129 -56 181t-165 52z" glyph-name="braceright" horiz-adv-x="759" unicode="}"/><glyph d="M371 682q80 0 180 -62t141 -63h19q66 10 69 109h181q-2 -127 -62.5 -220.5t-183.5 -91.5q-84 2 -195.5 63.5t-126.5 61.5q-35 0 -58.5 -28.5t-25.5 -79.5h-192q2 123 67.5 217t186.5 94z" glyph-name="asciitilde" horiz-adv-x="1097" unicode="~"/><glyph d="M180 -414v55l15 861h200l13 -645v-80l2 -191h-230zM158 823.5q0 57.5 40 97.5t96 40t97 -40t41 -97.5t-41 -98.5t-97 -41t-96 41t-40 98.5z" glyph-name="exclamdown" horiz-adv-x="589" unicode="¡"/><glyph d="M700 -86h-131v182q-180 29 -288.5 157t-108.5 310t112.5 312.5t286.5 158.5v193h129v-185q102 -4 174 -30v-205q-80 47 -192 49t-199.5 -77t-87.5 -213t82 -210.5t201 -76.5t199 47l14 -199q-94 -31 -191 -37v-176z" glyph-name="cent" horiz-adv-x="1095" unicode="¢"/><glyph d="M612 176h158q104 0 215 4v-184q-55 4 -203 4h-704v168q244 33 250 459h-170v149h176q16 600 479 600q104 0 201 -30l-25 -191q-59 35 -158 35q-250 0 -270 -316l-4 -98h313l-26 -149h-295q-10 -342 -164 -457q184 6 227 6z" glyph-name="sterling" horiz-adv-x="1095" unicode="£"/><glyph d="M117 656q0 126 78 237q-90 80 -152 149l115 113l149 -149q103 76 231 76t246 -76l144 143q59 -55 114 -115l-139 -141q76 -119 76 -241t-78 -230l148 -146l-117 -116l-150 147q-106 -74 -238 -74t-235 74l-141 -143l-119 115l146 145q-78 106 -78 232zM303 656 q0 -103 71.5 -175.5t173.5 -72.5t173.5 74.5t71.5 175t-72 175t-174 74.5t-173 -74t-71 -177z" glyph-name="currency" horiz-adv-x="1095" unicode="¤"/><glyph d="M428 213v94h-272v117h272v131h-272v119h270q-362 635 -393 684h256q74 -148 260 -496q219 381 270 496h240q-178 -313 -400 -684h273v-119h-275v-131h275v-117h-275v-92q1 -72 5 -215h-240q6 111 6 213z" glyph-name="yen" horiz-adv-x="1095" unicode="¥"/><glyph d="M158 -438v739h184v-739h-184zM158 819v740h184v-740h-184z" glyph-name="brokenbar" horiz-adv-x="497" unicode="¦"/><glyph d="M506 -61q194 0 194 147q0 109 -222 205t-289.5 170t-67.5 171q0 193 188 283q-49 35 -81.5 97.5t-32.5 130.5q0 143 98.5 227t276.5 84t311 -57v-185q-113 74 -277 74q-78 0 -130 -41t-52 -100q0 -109 201 -195q258 -105 305 -198t47 -166q0 -160 -162 -267 q107 -89 107 -235t-115 -230.5t-304 -84.5t-349 71q4 18 17 85t21 102q125 -88 297 -88h19zM319 690q0 -53 49.5 -104t97.5 -77t133 -64.5t95 -43.5q80 66 80 152q0 57 -42 105.5t-90 74t-124 59t-102 50.5q-97 -48 -97 -152z" glyph-name="section" horiz-adv-x="1089" unicode="§"/><glyph d="M645 1124q-47 0 -83 35t-36 82t36 81t83 34t81 -34t34 -81t-34 -82t-81 -35zM119 1241q0 47 34.5 81t82 34t82 -34t34.5 -81t-34.5 -82t-82 -35t-82 35t-34.5 82z" glyph-name="dieresis" horiz-adv-x="878" unicode="¨"/><glyph d="M98 664q0 281 194.5 478t474.5 197t474.5 -197.5t194.5 -477.5t-192.5 -475t-475.5 -195t-476.5 194.5t-193.5 475.5zM225 664q0 -234 157 -397t386 -163t386 163t157 398.5t-158 396.5t-385 161t-385 -162.5t-158 -396.5zM818 430q93 0 163 41q8 -100 14 -156 q-92 -33 -190 -32q-158 0 -263.5 109.5t-105.5 270.5t108.5 273.5t268.5 112.5q88 0 168 -29v-158q-59 41 -157 41t-162 -68.5t-64 -167.5t63.5 -168t156.5 -69z" glyph-name="copyright" horiz-adv-x="1540" unicode="©"/><glyph d="M43 155q0 75 48 113.5t129 51t159 12.5v18q0 49 -36 75t-89 26h-12q-61 0 -131 -33q-29 74 -33 86q84 45 184 45h31q100 0 157.5 -51.5t57.5 -147.5v-180q0 -98 14 -170h-114q-8 16 -17 57q-76 -71 -163 -71t-136 47t-49 122zM172 148q0 -26 22.5 -48t61.5 -22 q70 0 123 53v117q-18 -2 -45 -4t-40 -3t-32.5 -3t-29 -4.5t-21.5 -6.5t-17.5 -10t-11.5 -14t-8 -18.5t-2 -36.5z" glyph-name="ordfeminine" horiz-adv-x="866" unicode="ª"/><glyph d="M342 469q131 -103 281 -225v-205q-344 274 -517 414v32q481 389 515 416v-205q-47 -39 -140.5 -114.5t-138.5 -112.5zM1118 39q-296 233 -516 414v32q481 389 514 416v-205q-45 -39 -139 -114.5t-139 -112.5q60 -45 280 -225v-205z" glyph-name="guillemotleft" horiz-adv-x="1300" unicode="«"/><glyph d="M774 160v364h-719v174h930v-538h-211z" glyph-name="logicalnot" horiz-adv-x="1097" unicode="¬"/><glyph d="M119 1081.5q0 157.5 107.5 267t263 109.5t265 -110.5t109.5 -266t-109.5 -265t-266.5 -109.5t-263 108.5t-106 266zM195 1081q0 -129 84.5 -217t210.5 -88t211 89t85 217t-85 216t-211 88t-210.5 -88t-84.5 -217zM434 1049v-160h-76q2 29 2 88v215q0 68 -2 92h115 q70 0 107.5 -30t37.5 -76t-25.5 -75.5t-66.5 -39.5q18 -25 125 -174h-88q-49 90 -96 160h-33zM434 1231v-131h35q31 0 55.5 19.5t24.5 45.5q0 66 -80 66h-35z" glyph-name="registered" horiz-adv-x="993" unicode="®"/><glyph d="M162 1149v156h555v-156h-555z" glyph-name="macron" horiz-adv-x="878" unicode="¯"/><glyph d="M70 1097q0 120 84 202.5t202.5 82.5t200.5 -81.5t82 -200.5t-85 -205t-205 -86t-199.5 84t-79.5 204zM211 1095.5q0 -63.5 41 -106.5t102 -43t102.5 44t41.5 106t-42 105.5t-100 43.5t-101.5 -43t-43.5 -106.5z" glyph-name="degree" horiz-adv-x="708" unicode="°"/><glyph d="M449 328v331h-355v172h355v330h198v-330h354v-172h-354v-331h-198zM96 12v178h903v-178h-903z" glyph-name="plusminus" horiz-adv-x="1097" unicode="±"/><glyph d="M616 874h-534v119q16 16 93 89t117 114t80 101.5t40 108.5t-35 83t-107 35t-157 -62q-8 94 -15 156q106 55 226 55t195 -65.5t75 -166.5q0 -164 -145.5 -285.5t-161.5 -137.5h172q63 0 157 4v-148z" glyph-name="uni00B2" horiz-adv-x="712" unicode="²"/><glyph d="M219 1343q94 0 138 20.5t44 72.5q0 100 -112 100q-92 0 -168 -47l-15 145q106 41 214 41t183 -52t75 -150q0 -129 -156 -187q80 -18 130 -67.5t50 -122.5q0 -104 -82 -166t-216 -62t-212 39q0 2 12 142q66 -45 156 -45q164 0 164 110q0 49 -39 78t-113 29l-53 -2v124z " glyph-name="uni00B3" horiz-adv-x="714" unicode="³"/><glyph d="M739 1397l-225 -314h-195l189 314h231z" glyph-name="acute" horiz-adv-x="878" unicode="´"/><glyph d="M350 -147v-152q0 -102 8 -199h-225q6 74 6 207v1122h-92q49 104 59 127h263q-4 -143 -4 -219v-172q0 -213 50 -307t183 -94q76 0 141.5 51t79.5 125v387q0 160 -2 229h234q-4 -66 -4 -223v-532q0 -90 14 -203h-193q-4 18 -9 39.5t-11 48.5t-10 41q-96 -143 -256 -143 t-238 129q6 -86 6 -262z" glyph-name="uni00B5" horiz-adv-x="1185" unicode="µ"/><glyph d="M592 49v389q-227 10 -359.5 134t-132.5 333t141.5 340t360.5 131h506v-1601h-133v1460h-166v-1108q0 -250 4 -352h-225q4 164 4 274z" glyph-name="paragraph" horiz-adv-x="1253" unicode="¶"/><glyph d="M111 515q0 62 44 106.5t106 44.5t105.5 -44t43.5 -106t-43 -106.5t-105 -44.5t-106.5 44t-44.5 106z" glyph-name="periodcentered" horiz-adv-x="522" unicode="·"/><glyph d="M627 -270q0 -88 -64.5 -140.5t-179.5 -52.5q-63 0 -141 25q0 42 8 114q126 -51 169.5 -18t43.5 68q0 76 -123 75q-35 0 -53 -4q6 12 38.5 86t53.5 109h125q-8 -14 -22.5 -45t-22.5 -47q168 -27 168 -170z" glyph-name="cedilla" horiz-adv-x="886" unicode="¸"/><glyph d="M459 1520v-527q0 -78 4 -121h-172v615q-35 -11 -102.5 -38.5t-88.5 -35.5q-16 86 -24 127q115 45 297 129h88q-2 -39 -2 -149z" glyph-name="uni00B9" horiz-adv-x="634" unicode="¹"/><glyph d="M47 283q0 125 85 211t210 86t209 -86t84 -211t-83 -212t-209 -87t-211 87t-85 212zM342 461q-68 0 -114 -56.5t-46 -126.5t45 -123t114 -53t114 52.5t45 128t-45 127t-113 51.5z" glyph-name="ordmasculine" horiz-adv-x="985" unicode="º"/><glyph d="M682 246l281 225l-279 227v205q25 -20 514 -416v-32l-516 -416v207zM186 246l281 225l-279 227v205q156 -133 514 -416v-32l-516 -416v207z" glyph-name="guillemotright" horiz-adv-x="1300" unicode="»"/><glyph d="M1167 1364h179q-739 -1094 -924 -1364h-176q550 813 921 1364zM473 1221v-527q0 -80 4 -121h-172v615q-18 -6 -85.5 -34t-104.5 -40q-8 41 -25 127q152 61 297 127h88q-2 -39 -2 -147zM889 180v86q350 444 414 527h102v-500q84 0 127 2v-117q-29 2 -127 2v-67 q0 -66 2 -113h-143v180h-375zM1264 293v119q0 96 4 206l-250 -325h246z" glyph-name="onequarter" horiz-adv-x="1667" unicode="¼"/><glyph d="M1167 1364h179q-739 -1094 -924 -1364h-176q550 813 921 1364zM1563 549q0 -68 -32 -118t-49.5 -74.5t-55 -61.5t-55 -53.5t-62.5 -54t-54 -46.5h172q84 0 158 6v-147h-536v119q252 224 291.5 297t39.5 117t-35.5 80t-108.5 36t-155 -63l-14 155q106 55 226 55t195 -65 t75 -182zM473 1221v-527q0 -80 4 -121h-172v615q-18 -6 -85.5 -34t-104.5 -40q-8 41 -25 127q152 61 297 127h88q-2 -39 -2 -147z" glyph-name="onehalf" horiz-adv-x="1673" unicode="½"/><glyph d="M1167 1364h179q-739 -1094 -924 -1364h-176q550 813 921 1364zM256 1040q94 0 138 20t44 72q0 100 -112 101q-92 0 -168 -47l-15 145q106 41 214 41t182.5 -52t74.5 -151q0 -129 -155 -186q80 -18 130 -67.5t50 -122.5q0 -104 -82 -166t-216 -62t-212 39q0 2 12 141 q67 -45 157 -45q164 0 163 111q0 49 -39 78t-113 29l-53 -3v125zM889 180v86q350 444 414 527h102v-500q84 0 127 2v-117q-29 2 -127 2v-67q0 -66 2 -113h-143v180h-375zM1264 293v119q0 96 4 206l-250 -325h246z" glyph-name="threequarters" horiz-adv-x="1662" unicode="¾"/><glyph d="M621 561q0 -150 -43.5 -239.5t-114 -155.5t-77.5 -72t-37 -41t-30 -86q0 -92 66 -135t129 -43q145 0 254 133v-219q-109 -109 -289 -109q-132 0 -219.5 51.5t-124.5 118t-37 156.5q0 141 156 283q96 84 127 154.5t33 203.5h207zM645 845q0 -56 -42 -98t-98 -42t-97 40.5 t-41 96.5t42 96.5t99 42.5t97 -39t40 -97z" glyph-name="questiondown" horiz-adv-x="929" unicode="¿"/><glyph d="M578 1485l-224 313h232q16 -31 92 -154.5t94 -158.5h-194zM1329 0h-268q-6 18 -141 352h-529q-14 -37 -68.5 -169.5t-68.5 -182.5h-240q43 84 160 354l444 1041h91l471 -1084q71 -166 149 -311zM461 526h387l-195 502z" glyph-name="Agrave" unicode="À"/><glyph d="M977 1798q-58 -82 -223 -313h-195l189 313h229zM1329 0h-268q-6 18 -141 352h-529q-14 -37 -68.5 -169.5t-68.5 -182.5h-240q43 84 160 354l444 1041h91l471 -1084q71 -166 149 -311zM461 526h387l-195 502z" glyph-name="Aacute" unicode="Á"/><glyph d="M666 1649q-3 -4 -121 -166h-174l252 317h88q27 -33 127 -158.5t127 -158.5h-181zM1329 0h-268q-6 18 -141 352h-529q-14 -37 -68.5 -169.5t-68.5 -182.5h-240q43 84 160 354l444 1041h91l471 -1084q71 -166 149 -311zM461 526h387l-195 502z" glyph-name="Acircumflex" unicode="Â"/><glyph d="M534 1733q74 0 146 -45.5t102 -45.5q61 0 64 80h131q-2 -90 -45.5 -157.5t-117.5 -67.5t-154 44t-95 44q-57 0 -61 -78h-139q2 90 48.5 158t120.5 68zM1327 0h-266q-2 4 -143 350h-529q-117 -293 -137 -350h-238q25 49 277 634t325 759h91q72 -152 473 -1088 q79 -182 147 -305zM459 526h389q-113 287 -195 502q-25 -63 -91 -236.5t-103 -265.5z" glyph-name="Atilde" unicode="Ã"/><glyph d="M872.5 1524q-47.5 0 -83 34.5t-35.5 82.5t35.5 82t83 34t81 -33.5t33.5 -81.5t-33.5 -83t-81 -35zM346 1641q0 48 35 82t82 34t83 -33.5t36 -81.5t-36 -83t-83 -35t-82 34.5t-35 82.5zM1329 0h-268q-6 18 -141 352h-529q-14 -37 -68.5 -169.5t-68.5 -182.5h-240 q43 84 160 354l444 1041h91l471 -1084q71 -166 149 -311zM461 526h387l-195 502z" glyph-name="Adieresis" unicode="Ä"/><glyph d="M461 1654q0 81 59.5 134t146.5 53t145 -53t58 -133t-58 -135.5t-145 -55.5t-146.5 54.5t-59.5 135.5zM584 1656q0 -36 22.5 -64.5t59 -28.5t60.5 25.5t24 63.5t-24 63.5t-60 25.5t-59 -24.5t-23 -60.5zM1329 0h-268q-6 18 -141 352h-529q-14 -37 -68.5 -169.5 t-68.5 -182.5h-240q43 84 160 354l444 1041h91l471 -1084q71 -166 149 -311zM461 526h387l-195 502z" glyph-name="Aring" unicode="Å"/><glyph d="M1333 193q207 0 285 8v-201h-655q-41 258 -58 354h-473q-12 -25 -178 -354h-250q39 68 341 642.5t384 733.5h436q221 0 338 4q-12 -139 -16 -200q-82 4 -322 4h-204q31 -158 69 -406h209q207 0 283 4v-196q-76 4 -271 4h-180q27 -180 64 -397h198zM512 530h356 q-4 27 -92 555q-47 -102 -138 -291.5t-126 -263.5z" glyph-name="AE" horiz-adv-x="1716" unicode="Æ"/><glyph d="M94 689q0 300 209 504t514 204q172 0 344 -60v-237q-131 94 -336 94t-349 -149.5t-144 -363.5t141 -360.5t344 -146.5t350 92v-229q-127 -49 -288 -55q-8 -14 -39 -82q166 -27 166 -170q0 -29 -15 -45q-10 -68 -71.5 -108t-141.5 -40t-157 25q8 80 10 114q68 -27 108 -26 q106 0 107 76q0 33 -34 54t-81 21t-65 -4q14 31 41.5 92.5t44.5 92.5q-289 16 -473.5 211.5t-184.5 495.5z" glyph-name="Ccedilla" horiz-adv-x="1273" unicode="Ç"/><glyph d="M428 1485l-223 313h229q29 -51 93.5 -156.5t93.5 -156.5h-193zM393 1184v-375h133q233 0 320 2v-197q-86 4 -320 4h-133v-425h185q240 0 319 4v-201q-80 4 -315 4h-426q6 42 6 342v690q0 205 -6 344h422q215 0 317 6l-35 -202q-72 4 -467 4z" glyph-name="Egrave" horiz-adv-x="1015" unicode="È"/><glyph d="M793 1798l-224 -313h-192q30 47 186 313h230zM391 807h170q207 0 285 4v-197q-78 4 -285 4h-170v-425h187q240 0 319 2v-197q-80 2 -315 2h-426q12 107 9 215.5t-3 124.5v692q0 205 -6 344h460q184 0 279 4q-27 -145 -35 -200q-88 4 -264 4t-205 -2v-375z" glyph-name="Eacute" horiz-adv-x="1015" unicode="É"/><glyph d="M506 1647q-76 -111 -121 -166h-172q84 104 252 317h86q43 -53 128 -159.5t126 -157.5h-180q-20 29 -60.5 84t-58.5 82zM391 807h170q207 0 285 4v-197q-78 4 -285 4h-170v-425h187q240 0 319 2v-197q-80 2 -315 2h-426q12 107 9 215.5t-3 124.5v692q0 205 -6 344h460 q184 0 279 4q-27 -145 -35 -200q-88 4 -264 4t-205 -2v-375z" glyph-name="Ecircumflex" horiz-adv-x="1015" unicode="Ê"/><glyph d="M714 1526q-48 0 -83 34.5t-35 82t35 81t83 33.5t81.5 -33.5t33.5 -81t-33.5 -82t-81.5 -34.5zM188 1642.5q0 47.5 35 81t82 33.5t81 -33.5t34 -81t-34 -82t-81 -34.5t-82 34.5t-35 82zM393 1184v-375h133q233 0 320 2v-197q-86 4 -320 4h-133v-425h185q240 0 319 4v-201 q-80 4 -315 4h-426q6 42 6 342v690q0 205 -6 344h422q215 0 317 6l-35 -202q-68 4 -467 4z" glyph-name="Edieresis" horiz-adv-x="1015" unicode="Ë"/><glyph d="M399 997v-647q0 -254 7 -350h-244q6 131 6 350v647q0 231 -6 379h244q-7 -96 -7 -379zM190 1485l-225 313h232q35 -61 107.5 -180t80.5 -133h-195z" glyph-name="Igrave" horiz-adv-x="565" unicode="Ì"/><glyph d="M397 997v-649q0 -252 4 -348h-239q4 176 4 350v647q0 178 -4 379h239q-4 -127 -4 -379zM602 1798l-223 -313h-195q157 258 189 313h229z" glyph-name="Iacute" horiz-adv-x="565" unicode="Í"/><glyph d="M397 997v-649q0 -252 4 -348h-239q6 131 6 350v647q0 227 -6 379h239q-4 -127 -4 -379zM-10 1481q82 104 250 317h86q49 -61 140 -175t114 -142h-179q-80 108 -120 166q-74 -102 -121 -166h-170z" glyph-name="Icircumflex" horiz-adv-x="565" unicode="Î"/><glyph d="M399 997v-647q0 -254 4 -350h-241q6 131 6 350v647q0 231 -6 379h241q-4 -64 -4 -379zM489.5 1524q-47.5 0 -83 34.5t-35.5 82.5t35.5 82t83 34t81 -33.5t33.5 -81.5t-33.5 -83t-81 -35zM-37 1641q0 48 35 82t82 34t82 -33.5t35 -81.5t-35 -83t-82 -35t-82 34.5t-35 82.5 z" glyph-name="Idieresis" horiz-adv-x="565" unicode="Ï"/><glyph d="M580 1376q369 0 556 -204.5t187 -494.5t-206 -483.5t-511 -193.5h-416q4 160 5 340v262h-168v174h168v225q-1 191 -5 375h390zM428 190h170q225 0 357 141.5t132 357.5t-136 355.5t-355 139.5h-168v-408h287v-174h-287v-412z" glyph-name="Eth" horiz-adv-x="1421" unicode="Ð"/><glyph d="M588 1733q70 0 159 -45.5t97 -45.5q61 0 61 80h133q-2 -90 -46 -157.5t-116 -67.5t-153.5 44t-95.5 44q-58 0 -62 -78h-139q2 86 47 156t115 70zM381 285q0 -205 6 -285h-231q4 164 4 293v739q0 106 -4 361h98q137 -162 412.5 -481.5t412.5 -481.5v596q0 217 -6 350h242 q-10 -145 -10 -342v-782q0 -180 4 -258h-103q-47 55 -825 967v-676z" glyph-name="Ntilde" horiz-adv-x="1466" unicode="Ñ"/><glyph d="M807 -25q-303 0 -507 204t-204 508t204 507t506 203t507 -205t205 -507t-204 -506t-507 -204zM807 168q205 0 338 148.5t133 369.5t-134 369.5t-337 148.5t-338 -146.5t-135 -370.5t134 -371.5t339 -147.5zM721 1485l-223 313h231q16 -31 92 -154.5t94 -158.5h-194z" glyph-name="Ograve" horiz-adv-x="1613" unicode="Ò"/><glyph d="M807 -25q-303 0 -507 204t-204 508t204 507t506 203t507 -205t205 -507t-204 -506t-507 -204zM807 168q205 0 338 148.5t133 369.5t-134 369.5t-337 148.5t-338 -146.5t-135 -370.5t134 -371.5t339 -147.5zM1114 1798q-58 -82 -223 -313h-193l185 313h231z" glyph-name="Oacute" horiz-adv-x="1613" unicode="Ó"/><glyph d="M807 -25q-303 0 -507 204t-204 508t204 507t506 203t507 -205t205 -507t-204 -506t-507 -204zM807 168q205 0 338 148.5t133 369.5t-134 369.5t-337 148.5t-338 -146.5t-135 -370.5t134 -371.5t339 -147.5zM510 1481l252 317h86q217 -266 254 -317h-178l-121 166 q-84 -117 -121 -166h-172z" glyph-name="Ocircumflex" horiz-adv-x="1613" unicode="Ô"/><glyph d="M804 -23q-304 0 -507 203t-203 506t204 507t506 204t507 -206t205 -508t-204 -504t-508 -202zM806 168q206 0 339 147.5t133 369.5t-134 369.5t-338 147.5t-339 -146.5t-135 -370.5t134 -370.5t340 -146.5zM670 1733q74 0 145.5 -45.5t102.5 -45.5q61 0 63 80h131 q-2 -90 -45 -157.5t-117 -67.5t-154.5 44t-95.5 44q-57 0 -61 -78h-139q2 88 49 157t121 69z" glyph-name="Otilde" horiz-adv-x="1613" unicode="Õ"/><glyph d="M807 -25q-303 0 -507 204t-204 508t204 507t506 203t507 -205t205 -507t-204 -506t-507 -204zM807 168q205 0 338 148.5t133 369.5t-134 369.5t-337 148.5t-338 -146.5t-135 -370.5t134 -371.5t339 -147.5zM1012 1524q-47 0 -83 34.5t-36 82.5t36 82t83 34t80.5 -33.5 t33.5 -81.5t-33.5 -83t-80.5 -35zM485 1641q0 48 35 82t82 34t83 -33.5t36 -81.5t-36 -83t-83 -35t-82 34.5t-35 82.5z" glyph-name="Odieresis" horiz-adv-x="1613" unicode="Ö"/><glyph d="M686 526l313 -311q-41 -39 -125 -123q-205 209 -309 314q-47 -45 -98 -97.5t-67 -68.5l-144 -144l-125 125q205 205 311 307q-91 88 -317 314l125 123l311 -312q258 252 309 305q45 -41 125 -120q-207 -207 -309 -312z" glyph-name="multiply" horiz-adv-x="1130" unicode="×"/><glyph d="M807 1397q215 0 399 -125l101 119h204q-133 -150 -188 -211q195 -205 195 -502t-204 -499t-507 -202q-225 0 -406 117l-96 -108h-201q129 147 181 207q-189 201 -189 499t204 501.5t507 203.5zM807 168q207 0 340 148.5t133 369.5q0 177 -100 318q-463 -539 -643 -746 q121 -90 270 -90zM807 1202q-205 0 -339 -146.5t-134 -369.5q0 -178 94 -319q430 500 645 747q-115 88 -266 88z" glyph-name="Oslash" horiz-adv-x="1613" unicode="Ø"/><glyph d="M387 1018v-486q0 -174 85 -265t230 -91t228.5 94.5t83.5 266.5v481q0 266 -4 358h237q-2 -96 -2 -360v-484q0 -266 -147.5 -409t-400.5 -143t-397 148t-144 404v484q0 184 -4 360h241q-6 -92 -6 -358zM606 1485l-223 313h229q139 -231 187 -313h-193z" glyph-name="Ugrave" horiz-adv-x="1398" unicode="Ù"/><glyph d="M385 1018v-486q0 -174 85 -265t230 -91t228.5 93t83.5 266v483q0 264 -2 358h237q-2 -98 -2 -360v-484q0 -266 -147.5 -409t-401.5 -143t-398 148t-144 404v484q0 272 -4 360h241q-6 -92 -6 -358zM997 1798q-53 -76 -225 -313h-190l184 313h231z" glyph-name="Uacute" horiz-adv-x="1398" unicode="Ú"/><glyph d="M385 1018v-486q0 -174 85 -265t230 -91t228.5 93t83.5 266v483q0 264 -2 358h237q-2 -98 -2 -360v-484q0 -266 -147.5 -409t-401.5 -143t-398 148t-144 404v484q0 272 -4 360h241q-6 -92 -6 -358zM696 1647q-93 -130 -121 -166h-172q184 233 252 317h84q88 -104 256 -317 h-178q-35 48 -121 166z" glyph-name="Ucircumflex" horiz-adv-x="1398" unicode="Û"/><glyph d="M387 1018v-486q0 -174 85 -265t230 -91t228.5 94.5t83.5 266.5v481q0 266 -4 358h237q-2 -96 -2 -360v-484q0 -266 -147.5 -409t-400.5 -143t-397 148t-144 404v484q0 184 -4 360h241q-6 -92 -6 -358zM904 1526q-48 0 -83 34.5t-35 82t35 81t83 33.5t82 -33.5t34 -81 t-34 -82t-82 -34.5zM379 1642.5q0 47.5 35 81t82 33.5t82.5 -33.5t35.5 -81t-35.5 -82t-82.5 -34.5t-82 34.5t-35 82z" glyph-name="Udieresis" horiz-adv-x="1398" unicode="Ü"/><glyph d="M862 1798l-225 -313h-193l187 313h231zM508 324v272l-324 522q-88 147 -168 258h275q68 -134 183.5 -324t154.5 -255l235 395q61 104 105 184h258q-12 -20 -51 -76.5t-62 -93.5l-379 -610v-274q0 -187 6 -322h-237q4 197 4 324z" glyph-name="Yacute" horiz-adv-x="1241" unicode="Ý"/><glyph d="M393 1137h103q215 0 355 -115t140 -322t-140 -319.5t-364 -112.5h-94v-55q0 -152 4 -213h-241q6 111 6 295v727q0 236 -6 354h241l-4 -170v-69zM393 956v-514h92q119 0 198 71t79 187t-78 186t-199 70h-92z" glyph-name="Thorn" horiz-adv-x="1081" unicode="Þ"/><glyph d="M561 799q246 0 246 262q0 90 -60.5 147.5t-157.5 57.5t-160.5 -66.5t-63.5 -193.5v-934q0 -158 4 -217h-246q4 63 4 215v923q0 221 128 349t331 128t323.5 -112.5t120.5 -290.5q0 -119 -61.5 -209t-165.5 -137q139 -18 237.5 -107.5t98.5 -260.5t-122 -272t-298 -101 q-125 0 -215 45v231q57 -57 96.5 -71.5t113.5 -14.5t131.5 60.5t57.5 145.5t-88 172t-225 87q-53 0 -80 -8v174q16 -2 51 -2z" glyph-name="germandbls" horiz-adv-x="1204" unicode="ß"/><glyph d="M389 1083l-221 314h229q29 -53 187 -314h-195zM464 981q396 0 408 -340q2 -39 2 -117v-213q0 -199 39 -311h-215q-8 70 -12 106q-115 -127 -301 -126q-137 0 -225 82.5t-88 216.5q0 189 137.5 246t237.5 66t223 9v31q0 76 -63 129t-173 53t-233 -82l-74 158 q141 92 337 92zM281 283q0 -63 45 -104.5t105 -41.5t129 31t112 76v202l-166 -6q-225 -6 -225 -157z" glyph-name="agrave" horiz-adv-x="989" unicode="à"/><glyph d="M758 1397q-104 -136 -226 -314h-192l186 314h232zM464 981q396 0 408 -340q2 -39 2 -117v-213q0 -199 39 -311h-215q-8 70 -12 106q-115 -127 -301 -126q-137 0 -225 82.5t-88 216.5q0 189 137.5 246t237.5 66t223 9v31q0 76 -63 129t-173 53t-233 -82l-74 158 q141 92 337 92zM281 283q0 -63 45 -104.5t105 -41.5t129 31t112 76v202l-166 -6q-225 -6 -225 -157z" glyph-name="aacute" horiz-adv-x="989" unicode="á"/><glyph d="M477 1245q-63 -92 -121 -166h-172l252 320h86q86 -106 254 -320h-178q-20 27 -60 82.5t-61 83.5zM464 981q396 0 408 -340q2 -39 2 -117v-213q0 -199 39 -311h-215q-8 70 -12 106q-115 -127 -301 -126q-137 0 -225 82.5t-88 216.5q0 189 137.5 246t237.5 66t223 9v31 q0 76 -63 129t-173 53t-233 -82l-74 158q141 92 337 92zM281 283q0 -63 45 -104.5t105 -41.5t129 31t112 76v202l-166 -6q-225 -6 -225 -157z" glyph-name="acircumflex" horiz-adv-x="989" unicode="â"/><glyph d="M481 981q213 0 303 -108.5t90 -337.5v-224q0 -199 39 -311h-215q-8 70 -12 106q-115 -127 -301 -126q-137 0 -225 82.5t-88 216.5q0 86 37.5 148t131 117.5t429.5 55.5v31q0 82 -63.5 132t-151.5 50q-131 0 -254 -82l-74 158q141 92 354 92zM281 283q0 -63 45 -104.5 t105 -41.5t129 31t112 76v202l-166 -6q-225 -6 -225 -157zM371 1331q55 0 141 -45t92 -45h12q47 6 52 78h131q-2 -92 -46.5 -159.5t-118.5 -65.5t-155.5 46t-91.5 44q-55 0 -61 -78h-140q2 90 49.5 157.5t135.5 67.5z" glyph-name="atilde" horiz-adv-x="989" unicode="ã"/><glyph d="M693 1124q-48 0 -83 34t-35 81t35 81t83 34t82 -34t34 -81t-34 -81t-82 -34zM168 1239q0 47 35 81t82 34t82.5 -34t35.5 -81t-35.5 -81t-82.5 -34t-82 34t-35 81zM481 981q213 0 303 -108.5t90 -337.5v-224q0 -199 39 -311h-215q-8 70 -12 106q-115 -127 -301 -126 q-137 0 -225 82.5t-88 216.5q0 86 37.5 148t131 117.5t429.5 55.5v31q0 82 -63.5 132t-151.5 50q-131 0 -254 -82l-74 158q141 92 354 92zM281 283q0 -63 45 -104.5t105 -41.5t129 31t112 76v202l-166 -6q-225 -6 -225 -157z" glyph-name="adieresis" horiz-adv-x="989" unicode="ä"/><glyph d="M287 1251q0 82 58 134.5t146.5 52.5t147.5 -53.5t59 -133.5t-58 -135t-146 -55t-147.5 54t-59.5 136zM410 1253q0 -37 22.5 -64.5t60.5 -27.5t60 24.5t22 63.5t-23.5 64.5t-59.5 25.5t-59 -24.5t-23 -61.5zM481 981q213 0 303 -108.5t90 -337.5v-224q0 -199 39 -311h-215 q-8 70 -12 106q-115 -127 -301 -126q-137 0 -225 82.5t-88 216.5q0 86 37.5 148t131 117.5t429.5 55.5v31q0 82 -63.5 132t-151.5 50q-131 0 -254 -82l-74 158q141 92 354 92zM281 283q0 -63 45 -104.5t105 -41.5t129 31t112 76v202l-166 -6q-225 -6 -225 -157z" glyph-name="aring" horiz-adv-x="989" unicode="å"/><glyph d="M474 981q210 0 298 -131q131 145 338 145q115 0 203 -40t160.5 -138.5t72.5 -267.5q0 -61 -6 -98h-684q8 -145 97 -218t231 -72t307 95v-174q-143 -96 -336 -96q-276 0 -395 149h-4q-143 -156 -373 -155q-137 0 -224 81.5t-87 217.5q0 196 123.5 244t219 60.5t240.5 16.5 v31q0 84 -57 133t-143 49q-131 0 -254 -82l-74 158q137 92 347 92zM281 283q0 -63 45 -104.5t107 -41.5t133 33t114 84v2l2 2q-29 61 -29 188l-147 -6q-225 -10 -225 -157zM1109 819q-114 0 -179.5 -72.5t-75.5 -158.5h494q-4 104 -64.5 167.5t-174.5 63.5z" glyph-name="ae" horiz-adv-x="1605" unicode="æ"/><glyph d="M72 486q0 208 150.5 348.5t379.5 140.5q143 0 268 -57v-213q-109 79 -253 79t-237 -88t-93 -221t89.5 -219t235.5 -86t262 82v-205q-88 -53 -212 -59q-29 -57 -41 -90q166 -23 165 -170q0 -86 -64.5 -138.5t-159.5 -52.5t-159 25q0 12 4.5 57t4.5 57q57 -26 107 -26 t79 19.5t29 54.5q0 78 -127 77q-35 0 -51 -6l88 195q-207 18 -336 153t-129 343z" glyph-name="ccedilla" horiz-adv-x="993" unicode="ç"/><glyph d="M967 576q0 -88 -6 -123h-685q8 -141 89 -215t227 -74t321 94v-176q-158 -98 -338 -98q-231 0 -369 136t-138 364t121.5 371.5t338.5 143.5q152 0 254.5 -70.5t143.5 -167.5t41 -185zM528 821q-115 0 -179 -73.5t-75 -157.5h492q-4 104 -63.5 167.5t-174.5 63.5zM426 1083 l-225 314h231q16 -31 92 -155t94 -159h-192z" glyph-name="egrave" horiz-adv-x="1024" unicode="è"/><glyph d="M967 576q0 -88 -6 -123h-685q8 -141 89 -215t227 -74t321 94v-176q-158 -98 -338 -98q-231 0 -369 136t-138 364t121.5 371.5t338.5 143.5q152 0 254.5 -70.5t143.5 -167.5t41 -185zM528 821q-115 0 -179 -73.5t-75 -157.5h492q-4 104 -63.5 167.5t-174.5 63.5zM831 1397 l-223 -314h-194l188 314h229z" glyph-name="eacute" horiz-adv-x="1024" unicode="é"/><glyph d="M967 576q0 -88 -6 -123h-685q8 -141 89 -215t227 -74t321 94v-176q-158 -98 -338 -98q-231 0 -369 136t-138 364t121.5 371.5t338.5 143.5q152 0 254.5 -70.5t143.5 -167.5t41 -185zM528 821q-115 0 -179 -73.5t-75 -157.5h492q-4 104 -63.5 167.5t-174.5 63.5zM215 1081 l252 318h86l256 -318h-180l-121 166l-121 -166h-172z" glyph-name="ecircumflex" horiz-adv-x="1024" unicode="ê"/><glyph d="M967 576q0 -88 -6 -123h-685q8 -141 89 -215t227 -74t321 94v-176q-158 -98 -338 -98q-231 0 -369 136t-138 364t121.5 371.5t338.5 143.5q152 0 254.5 -70.5t143.5 -167.5t41 -185zM528 821q-115 0 -179 -73.5t-75 -157.5h492q-4 104 -63.5 167.5t-174.5 63.5zM717 1124 q-47 0 -83 35t-36 82t36 81t83 34t80.5 -34t33.5 -81t-33.5 -82t-80.5 -35zM190 1241q0 47 35 81t82 34t82 -34t35 -81t-35 -82t-82 -35t-82 35t-35 82z" glyph-name="edieresis" horiz-adv-x="1024" unicode="ë"/><glyph d="M369 733v-526q0 -150 8 -207h-240q8 63 8 207v624h-59l31 127h260q-8 -71 -8 -225zM158 1083q-76 104 -224 314h230q33 -57 96.5 -163t89.5 -151h-192z" glyph-name="igrave" horiz-adv-x="512" unicode="ì"/><glyph d="M369 733v-526q0 -141 6 -207h-238q6 70 6 207v624h-59l31 127h260q-6 -80 -6 -225zM573 1397l-223 -314h-192q123 209 186 314h229z" glyph-name="iacute" horiz-adv-x="512" unicode="í"/><glyph d="M369 733v-526q0 -141 6 -207h-238q8 63 8 207v624h-61q16 66 33 127h258q-6 -80 -6 -225zM242 1245q-26 -38 -121 -166h-170q82 106 250 320h86q86 -106 254 -320h-181q-20 29 -60 84.5t-58 81.5z" glyph-name="icircumflex" horiz-adv-x="512" unicode="î"/><glyph d="M369 735v-528q0 -141 6 -207h-236q6 74 6 207v627h-61l33 124h258q-6 -80 -6 -223zM441 1124q-48 0 -82.5 34t-34.5 82t35.5 82t82.5 34t81 -34t34 -82t-34 -82t-82 -34zM-84 1240q0 48 35 82t82 34t82 -34t35 -82t-35 -82t-82 -34t-82 34t-35 82z" glyph-name="idieresis" horiz-adv-x="512" unicode="ï"/><glyph d="M562 -14q-210 0 -348 140t-138 346t126 339t315 133t286 -133q4 2 6 2q-35 221 -207 352l-250 -131q-18 33 -51 99q33 16 97.5 50t95.5 50q-127 61 -279 80q6 85 21 176q262 -27 454 -152q72 35 211 109q15 -24 55 -94q-44 -22 -95.5 -50t-78.5 -40q266 -250 267 -695 q0 -266 -138.5 -423.5t-348.5 -157.5zM562 174q116 0 189.5 91t73.5 219t-73.5 211t-189.5 83t-190.5 -86t-74.5 -216t74.5 -216t190.5 -86z" glyph-name="eth" horiz-adv-x="1144" unicode="ð"/><glyph d="M139 836h-96q8 12 59 125h248q4 -29 10 -132q123 150 320 150q354 0 354 -434v-314q0 -170 6 -231h-233q4 76 4 238v344q0 104 -57.5 156.5t-143.5 52.5t-150.5 -47.5t-99.5 -125.5v-380q0 -170 5 -238h-232q6 104 6 238v598zM457 1331q55 0 141 -45t92 -45h12 q47 6 52 78h131q-2 -92 -46.5 -159.5t-118.5 -65.5t-155.5 46t-91.5 44q-55 0 -61 -78h-140q2 90 49.5 157.5t135.5 67.5z" glyph-name="ntilde" horiz-adv-x="1161" unicode="ñ"/><glyph d="M76 480q0 208 142 353.5t344 145.5t342 -145.5t140 -354.5t-140 -351t-344 -142t-344 143t-140 351zM559 786q-115 0 -188.5 -95t-73.5 -218t74.5 -211t190.5 -88t189.5 88t73.5 219t-75.5 218t-190.5 87zM473 1083l-223 314h229q16 -31 92 -155t95 -159h-193z" glyph-name="ograve" horiz-adv-x="1122" unicode="ò"/><glyph d="M76 480q0 208 142 353.5t344 145.5t342 -145.5t140 -354.5t-140 -351t-344 -142t-344 143t-140 351zM559 786q-115 0 -188.5 -95t-73.5 -218t74.5 -211t190.5 -88t189.5 88t73.5 219t-75.5 218t-190.5 87zM864 1397l-223 -314h-192l186 314h229z" glyph-name="oacute" horiz-adv-x="1122" unicode="ó"/><glyph d="M76 480q0 208 142 353.5t344 145.5t342 -145.5t140 -354.5t-140 -351t-344 -142t-344 143t-140 351zM559 786q-115 0 -188.5 -95t-73.5 -218t74.5 -211t190.5 -88t189.5 88t73.5 219t-75.5 218t-190.5 87zM264 1081l254 318h84q18 -25 122.5 -152t133.5 -166h-180 l-119 166l-121 -166h-174z" glyph-name="ocircumflex" horiz-adv-x="1122" unicode="ô"/><glyph d="M76 479q0 209 141 354.5t344 145.5t342 -146.5t139 -355.5t-140 -350t-344 -141t-343 142t-139 351zM558 784q-116 0 -189.5 -95t-73.5 -218t74.5 -211t190.5 -88t190.5 88t74.5 218t-75.5 218t-191.5 88zM438 1331q59 0 130 -45t104 -45q61 0 63 78h131 q-2 -90 -46 -158.5t-132 -66.5q-59 2 -139 46t-92 44q-60 0 -64 -78h-139q2 90 49 157.5t135 67.5z" glyph-name="otilde" horiz-adv-x="1122" unicode="õ"/><glyph d="M76 480q0 208 142 353.5t344 145.5t342 -145.5t140 -354.5t-140 -351t-344 -142t-344 143t-140 351zM559 786q-115 0 -188.5 -95t-73.5 -218t74.5 -211t190.5 -88t189.5 88t73.5 219t-75.5 218t-190.5 87zM767 1124q-48 0 -83 35t-35 82t35 81t83 34t82 -34t34 -81 t-34 -82t-82 -35zM242 1241q0 47 34.5 81t82 34t82 -34t34.5 -81t-34.5 -82t-82 -35t-82 35t-34.5 82z" glyph-name="odieresis" horiz-adv-x="1122" unicode="ö"/><glyph d="M98 475v176h914v-176h-914zM555 1049q55 0 94 -39.5t39 -93.5t-39 -94t-93 -40t-93 40t-39 94t38 93.5t93 39.5zM555 350q55 0 94 -38t39 -94t-39 -95t-93 -39t-93 39t-39 95t38 94t93 38z" glyph-name="divide" horiz-adv-x="1114" unicode="÷"/><glyph d="M1042 474q0 -204 -139 -346t-344 -142q-166 0 -291 92q-27 -31 -82 -92h-120q43 45 139 153q-129 137 -129 343t141 351.5t342 145.5q160 0 289 -98q49 49 84 92h119q-92 -100 -138 -154q129 -141 129 -345zM546 786q-102 0 -176.5 -89t-74.5 -207t47 -193l375 430 q-69 59 -171 59zM559 170q115 0 190.5 89t75.5 203t-49 197l-375 -430q76 -59 158 -59z" glyph-name="oslash" horiz-adv-x="1122" unicode="ø"/><glyph d="M473 1083q-147 209 -223 314h231q31 -53 187 -314h-195zM358 743v-176q0 -223 37 -312t160 -89q76 0 128 49t69 127v444q0 121 -2 175h233q-4 -98 -4 -168v-590q0 -129 20 -203h-200q-6 23 -15.5 67t-13.5 62q-86 -143 -285 -143q-154 0 -253 100t-99 311v437h-92l59 127 h262q-4 -143 -4 -218z" glyph-name="ugrave" horiz-adv-x="1118" unicode="ù"/><glyph d="M389 1083q134 221 186 314h232q-76 -104 -223 -314h-195zM358 743v-176q0 -223 37 -312t160 -89q76 0 128 49t69 127v444q0 121 -2 175h233q-4 -98 -4 -168v-590q0 -129 20 -203h-200q-6 23 -15.5 67t-13.5 62q-86 -143 -285 -143q-154 0 -253 100t-99 311v437h-92 l59 127h262q-4 -143 -4 -218z" glyph-name="uacute" horiz-adv-x="1118" unicode="ú"/><glyph d="M555 1245q-14 -21 -119 -166h-174l252 320h86q64 -79 256 -320h-180q-68 92 -121 166zM358 743v-176q0 -223 37 -312t160 -89q76 0 128 49t69 127v444q0 121 -2 175h233q-4 -98 -4 -168v-590q0 -129 20 -203h-200q-6 23 -15.5 67t-13.5 62q-86 -143 -285 -143 q-154 0 -253 100t-99 311v437h-92l59 127h262q-4 -143 -4 -218z" glyph-name="ucircumflex" horiz-adv-x="1118" unicode="û"/><glyph d="M764 1124q-47 0 -82 34t-35 81t35 81t82 34t81 -34t34 -81t-34 -81t-81 -34zM238 1239q0 47 34.5 81t82.5 34t83 -34t35 -81t-35 -81t-83 -34t-82.5 34t-34.5 81zM358 743v-176q0 -223 37 -312t160 -89q76 0 128 49t69 127v444q0 121 -2 175h233q-4 -98 -4 -168v-590 q0 -129 20 -203h-200q-6 23 -15.5 67t-13.5 62q-86 -143 -285 -143q-154 0 -253 100t-99 311v437h-92l59 127h262q-4 -143 -4 -218z" glyph-name="udieresis" horiz-adv-x="1118" unicode="ü"/><glyph d="M770 1397l-223 -314h-195q48 81 189 314h229zM86 -397l33 172q94 0 125 8q48 4 83.5 66.5t61 120t33.5 75.5q-197 442 -412 916h262q72 -193 263 -672q188 473 249 672h246q-312 -737 -402 -935t-114 -225q-111 -199 -266 -198h-162z" glyph-name="yacute" horiz-adv-x="1044" unicode="ý"/><glyph d="M658 973q182 0 304.5 -137.5t122.5 -347.5t-125.5 -353t-312.5 -143t-289 96v-356q0 -102 4 -209h-235q4 111 4 209v1546q0 129 -6 203h235l-2 -240v-381q118 113 300 113zM580 170q129 0 204.5 89t75.5 223t-76.5 220t-197.5 86q-51 0 -119 -25.5t-109 -57.5v-437 q41 -39 106 -68.5t116 -29.5z" glyph-name="thorn" horiz-adv-x="1173" unicode="þ"/><glyph d="M733 1124q-47 0 -83 34t-36 81t36 81t83 34t82 -34t35 -81t-35 -81t-82 -34zM209 1239q0 47 35 81t82 34t81.5 -34t34.5 -81t-34.5 -81t-81.5 -34t-82 34t-35 81zM86 -397l33 172q94 0 125 8q48 4 83.5 66.5t61 120t33.5 75.5q-197 442 -412 916h262q72 -193 263 -672 q188 473 249 672h246q-312 -737 -402 -935t-114 -225q-111 -199 -266 -198h-162z" glyph-name="ydieresis" horiz-adv-x="1044" unicode="ÿ"/><glyph d="M389 1538v156h555v-156h-555zM1329 0h-268q-6 18 -141 352h-529q-14 -37 -68.5 -169.5t-68.5 -182.5h-240q43 84 160 354l444 1041h91l471 -1084q57 -135 149 -311zM461 526h387l-195 502z" glyph-name="Amacron" unicode="Ā"/><glyph d="M211 1149v154h553v-154h-553zM483 981q354 0 385 -322q6 -57 6 -124v-224q0 -199 39 -311h-215q-8 70 -12 106q-115 -127 -301 -126q-137 0 -225 82.5t-88 216.5q0 297 444 317q115 4 154 4v31q0 82 -63.5 132t-151.5 50q-131 0 -254 -82l-74 158q141 92 356 92zM281 283 q0 -63 45 -104.5t105 -41.5t129 31t112 76v202l-166 -6q-225 -6 -225 -157z" glyph-name="amacron" horiz-adv-x="989" unicode="ā"/><glyph d="M668 1638q52 0 88.5 34t42.5 89h151q-6 -117 -87 -193.5t-197 -76.5t-194.5 77.5t-82.5 192.5h152q4 -57 39.5 -90t87.5 -33zM1329 0h-268q-6 18 -141 352h-529q-14 -37 -68.5 -169.5t-68.5 -182.5h-240q43 84 160 354l444 1041h91l471 -1084q57 -135 149 -311zM461 526 h387l-195 502z" glyph-name="Abreve" unicode="Ă"/><glyph d="M483 1237q16 0 29 6q39 8 68.5 40t31.5 77h150q-4 -117 -83 -192.5t-195.5 -75.5t-196.5 75.5t-84 192.5h151q4 -59 39 -91t90 -32zM483 981q354 0 385 -322q6 -57 6 -124v-224q0 -199 39 -311h-215q-8 70 -12 106q-115 -127 -301 -126q-137 0 -225 82.5t-88 216.5 q0 297 444 317q115 4 154 4v31q0 82 -63.5 132t-151.5 50q-131 0 -254 -82l-74 158q141 92 356 92zM281 283q0 -63 45 -104.5t105 -41.5t129 31t112 76v202l-166 -6q-225 -6 -225 -157z" glyph-name="abreve" horiz-adv-x="989" unicode="ă"/><glyph d="M920 -311q0 152 245 311h-104q-6 18 -141 352h-529q-14 -37 -68.5 -169.5t-68.5 -182.5h-240q43 84 160 354l444 1041h91l471 -1084q57 -135 149 -311q-217 -133 -217 -254q0 -45 27.5 -69.5t76.5 -24.5t95 31l16 -132q-85 -49 -187 -49t-161 51.5t-59 135.5zM461 526 h387l-195 502z" glyph-name="Aogonek" unicode="Ą"/><glyph d="M381 -18q-135 0 -222 82t-87 212t79 209t209 97t310 18v31q0 82 -63.5 132t-151.5 50q-10 0 -27 -4q-119 -6 -227 -78l-74 158q141 92 356 92q362 0 387 -334q4 -57 4 -94v-242q0 -199 39 -311q-227 -121 -227 -254q0 -92 96 -92q51 0 99 29q8 -39 16 -129 q-87 -52 -189 -52t-160.5 52.5t-58.5 136.5q0 149 246 309q-26 39 -43 76q-125 -94 -311 -94zM281 283q0 -63 45 -104.5t105 -41.5t129 31t112 76v202l-166 -6q-225 -6 -225 -157z" glyph-name="aogonek" horiz-adv-x="989" unicode="ą"/><glyph d="M698 1483l187 315h231l-223 -315h-195zM821 176q205 0 346 90v-229q-156 -59 -360 -60q-309 0 -510 200t-201 504t206 511t515 207q166 0 346 -62v-235q-131 94 -339 94t-349 -147.5t-141 -363.5t141 -362.5t346 -146.5z" glyph-name="Cacute" horiz-adv-x="1273" unicode="Ć"/><glyph d="M602 -12q-231 0 -380.5 137t-149.5 352t148.5 356.5t379.5 141.5q145 0 270 -60v-210q-109 79 -254 79t-237 -88t-92 -221t90 -219t233 -86t262 82v-207q-111 -57 -270 -57zM918 1397l-226 -314h-192q103 170 186 314h232z" glyph-name="cacute" horiz-adv-x="993" unicode="ć"/><glyph d="M520 1483l252 317h86q27 -33 129.5 -157.5t126.5 -159.5h-182l-119 166l-121 -166h-172zM821 176q205 0 346 90v-229q-156 -59 -360 -60q-309 0 -510 200t-201 504t206 511t515 207q166 0 346 -62v-235q-131 94 -339 94t-349 -147.5t-141 -363.5t141 -362.5t346 -146.5z " glyph-name="Ccircumflex" horiz-adv-x="1273" unicode="Ĉ"/><glyph d="M602 -12q-231 0 -380.5 137t-149.5 352t148.5 356.5t379.5 141.5q145 0 270 -60v-210q-109 79 -254 79t-237 -88t-92 -221t90 -219t233 -86t262 82v-207q-111 -57 -270 -57zM584 1245q-66 -88 -119 -166h-174l252 320h88q168 -213 254 -320h-180q-68 92 -121 166z" glyph-name="ccircumflex" horiz-adv-x="993" unicode="ĉ"/><glyph d="M690 1657q0 55 37 89t90 34t89 -34t36 -88t-36 -89t-89 -35t-90 34t-37 89zM821 176q205 0 346 90v-229q-156 -59 -360 -60q-309 0 -510 200t-201 504t206 511t515 207q166 0 346 -62v-235q-131 94 -339 94t-349 -147.5t-141 -363.5t141 -362.5t346 -146.5z" glyph-name="Cdotaccent" horiz-adv-x="1273" unicode="Ċ"/><glyph d="M602 -12q-231 0 -380.5 137t-149.5 352t148.5 356.5t379.5 141.5q145 0 270 -60v-210q-109 79 -254 79t-237 -88t-92 -221t90 -219t233 -86t262 82v-207q-111 -57 -270 -57zM465 1254q0 54 37 89t90 35t89 -35t36 -89t-36 -87.5t-89 -33.5t-90 33.5t-37 87.5z" glyph-name="cdotaccent" horiz-adv-x="993" unicode="ċ"/><glyph d="M1110 1788l-254 -318h-86l-252 318h176l121 -164l117 164h178zM821 176q205 0 346 90v-229q-156 -59 -360 -60q-309 0 -510 200t-201 504t206 511t515 207q166 0 346 -62v-235q-131 94 -339 94t-349 -147.5t-141 -363.5t141 -362.5t346 -146.5z" glyph-name="Ccaron" horiz-adv-x="1273" unicode="Č"/><glyph d="M602 -12q-231 0 -380.5 137t-149.5 352t148.5 356.5t379.5 141.5q145 0 270 -60v-210q-109 79 -254 79t-237 -88t-92 -221t90 -219t233 -86t262 82v-207q-111 -57 -270 -57zM877 1386q-183 -228 -256 -319h-86l-252 319h176q72 -104 121 -165l118 165h179z" glyph-name="ccaron" horiz-adv-x="993" unicode="č"/><glyph d="M582 0h-426q4 184 4 375v669q0 176 -4 332h372q332 0 545 -181t213 -495t-203.5 -507t-500.5 -193zM391 1184v-994h170q221 0 355.5 139.5t134.5 358.5t-138.5 357.5t-353.5 138.5h-168zM561 1468q-43 51 -126 158t-126 160h178q18 -29 59.5 -82t59.5 -82q23 29 121 164 h176q-86 -104 -254 -318h-88z" glyph-name="Dcaron" horiz-adv-x="1386" unicode="Ď"/><glyph d="M1298 1098h-165q14 125 38 375h197q-25 -125 -70 -375zM70 486q0 206 128 349.5t343 143.5q141 0 270 -86v424h-111q47 98 62 125h276q-12 -160 -12 -187v-1040q0 -135 4 -199q-63 -8 -186 -24q-4 18 -9.5 38.5t-11.5 45t-10 39.5q-98 -125 -281 -125q-224 0 -343 145 t-119 351zM574 162q128 0 237 112v431q-117 96 -248 96t-204.5 -90t-73.5 -239t80.5 -229.5t208.5 -80.5z" glyph-name="dcaron" horiz-adv-x="1165" unicode="ď"/><glyph d="M625 1376q291 0 495.5 -188.5t204.5 -497.5t-213 -499.5t-528 -190.5h-394q6 123 7 340v262h-170v176h170v226q-1 233 -7 372h435zM430 193h170q213 0 350 138t137 358t-136 357.5t-353 137.5h-168v-406h287v-176h-287v-409z" glyph-name="Dcroat" horiz-adv-x="1421" unicode="Đ"/><glyph d="M532 1126v123h283v72h-110q35 70 59 127h280q-8 -72 -12 -199h86v-123h-86v-1106q-154 -20 -184 -22q-24 90 -29 123q-102 -129 -276 -129q-14 0 -39 4q-199 10 -313.5 147.5t-114.5 346t127 350t342 141.5q145 0 270 -84v229h-283zM578 166q128 0 237 113v430 q-113 96 -245 96t-206.5 -90t-74.5 -239t80.5 -229.5t208.5 -80.5z" glyph-name="dcroat" horiz-adv-x="1165" unicode="đ"/><glyph d="M229 1538v154h553v-154h-553zM391 807h170q207 0 285 4v-197q-78 4 -285 4h-170v-425h187q240 0 319 2v-197q-80 2 -315 2h-426q6 98 6 340v692q0 205 -6 344h460q184 0 279 4q-27 -145 -35 -200q-88 4 -264 4t-205 -2v-375z" glyph-name="Emacron" horiz-adv-x="1015" unicode="Ē"/><glyph d="M967 576q0 -88 -6 -123h-685q8 -141 89 -215t227 -74t321 94v-176q-158 -98 -338 -98q-231 0 -369 136t-138 364t121.5 371.5t338.5 143.5q152 0 254.5 -70.5t143.5 -167.5t41 -185zM528 821q-115 0 -179 -73.5t-75 -157.5h492q-4 104 -63.5 167.5t-174.5 63.5zM238 1149 v156h555v-156h-555z" glyph-name="emacron" horiz-adv-x="1024" unicode="ē"/><glyph d="M505 1636q48 0 89 35t45 88h152q-6 -117 -87 -192.5t-197 -75.5t-195 76.5t-83 191.5h152q4 -57 40 -90t84 -33zM391 807h170q207 0 285 4v-197q-78 4 -285 4h-170v-425h187q240 0 319 2v-197q-80 2 -315 2h-426q6 98 6 340v692q0 205 -6 344h460q184 0 279 4 q-27 -145 -35 -200q-88 4 -264 4t-205 -2v-375z" glyph-name="Ebreve" horiz-adv-x="1015" unicode="Ĕ"/><glyph d="M967 576q0 -88 -6 -123h-685q8 -141 89 -215t227 -74t321 94v-176q-158 -98 -338 -98q-231 0 -369 136t-138 364t121.5 371.5t338.5 143.5q152 0 254.5 -70.5t143.5 -167.5t41 -185zM528 821q-115 0 -179 -73.5t-75 -157.5h492q-4 104 -63.5 167.5t-174.5 63.5zM517 1237 q52 0 88 34t42 91h150q-6 -119 -86 -194.5t-196 -75.5t-194.5 77.5t-82.5 192.5h151q4 -59 40 -92t88 -33z" glyph-name="ebreve" horiz-adv-x="1024" unicode="ĕ"/><glyph d="M509 1780q52 0 89 -35t37 -88t-36 -88t-89 -35t-90 34t-39 88t37 89t91 35zM391 807h170q207 0 285 4v-197q-78 4 -285 4h-170v-425h187q240 0 319 2v-197q-80 2 -315 2h-426q6 98 6 340v692q0 205 -6 344h460q184 0 279 4q-27 -145 -35 -200q-88 4 -264 4t-205 -2v-375z " glyph-name="Edotaccent" horiz-adv-x="1015" unicode="Ė"/><glyph d="M967 576q0 -88 -6 -123h-685q8 -141 89 -215t227 -74t321 94v-176q-158 -98 -338 -98q-231 0 -369 136t-138 364t121.5 371.5t338.5 143.5q152 0 254.5 -70.5t143.5 -167.5t41 -185zM528 821q-115 0 -179 -73.5t-75 -157.5h492q-4 104 -63.5 167.5t-174.5 63.5zM385 1256 q0 54 37 89t89 35t88 -35t36 -89t-36 -88.5t-88 -34.5t-89 34.5t-37 88.5z" glyph-name="edotaccent" horiz-adv-x="1024" unicode="ė"/><glyph d="M487 -309q0 152 244 309h-575q6 57 6 317v715q0 205 -6 344h442q190 0 285 4q-12 -139 -17 -200q-88 4 -265 4t-210 -2v-375h133q236 0 322 4v-197q-86 4 -322 4h-133v-425h187q240 0 319 2v-195q-219 -141 -219 -252q0 -45 27.5 -69.5t76.5 -24.5t97 29q6 -53 16 -129 q-91 -52 -191 -52t-158.5 52.5t-58.5 136.5z" glyph-name="Eogonek" horiz-adv-x="1015" unicode="Ę"/><glyph d="M680 -186q0 -95 102 -95q47 0 97 27q4 -57 16 -129q-91 -51 -191 -51t-158.5 52t-58.5 136q0 117 144 234q-29 -4 -56 -4q-231 0 -369 136t-138 364t121.5 371.5t338.5 143.5q152 0 295.5 -98.5t143.5 -351.5q0 -61 -6 -96h-685q8 -141 89 -215t227 -74t321 94v-176 q-8 -6 -48 -34t-112.5 -86t-72.5 -148zM528 821q-115 0 -179 -73.5t-75 -157.5h492q-4 104 -63.5 167.5t-174.5 63.5z" glyph-name="eogonek" horiz-adv-x="1024" unicode="ę"/><glyph d="M496 1468q-168 213 -252 318h174q51 -74 121 -164q55 80 120 164h179q-133 -164 -256 -318h-86zM391 807h170q207 0 285 4v-197q-78 4 -285 4h-170v-425h187q240 0 319 2v-197q-80 2 -315 2h-426q6 98 6 340v692q0 205 -6 344h460q184 0 279 4q-27 -145 -35 -200 q-88 4 -264 4t-205 -2v-375z" glyph-name="Ecaron" horiz-adv-x="1015" unicode="Ě"/><glyph d="M967 576q0 -88 -6 -123h-685q8 -141 89 -215t227 -74t321 94v-176q-158 -98 -338 -98q-231 0 -369 136t-138 364t121.5 371.5t338.5 143.5q152 0 254.5 -70.5t143.5 -167.5t41 -185zM528 821q-115 0 -179 -73.5t-75 -157.5h492q-4 104 -63.5 167.5t-174.5 63.5zM485 1069 l-252 320h175l120 -166l121 166h176l-254 -320h-86z" glyph-name="ecaron" horiz-adv-x="1024" unicode="ě"/><glyph d="M825 1649q-36 -52 -120 -166h-173l250 315h88q29 -35 117 -145.5t139 -169.5h-182q-6 8 -33.5 46t-52 71.5t-33.5 48.5zM1233 272v-219q-193 -78 -410 -78q-317 0 -522 195t-205 507t205 516t530 204q197 0 361 -60v-227q-154 88 -364 88t-352 -143.5t-142 -363.5 t136 -369.5t359 -149.5q117 0 183 37v168q0 178 -4 264h231q-6 -168 -6 -369z" glyph-name="Gcircumflex" horiz-adv-x="1388" unicode="Ĝ"/><glyph d="M530 1245q-40 -58 -120 -166h-170q123 160 252 320h83q88 -106 256 -320h-180q-20 27 -60 82.5t-61 83.5zM482 -457q-226 0 -343 39q13 36 56 164q98 -23 286 -22q250 0 273 225q8 86 8 135q-113 -98 -268 -98q-201 0 -327 131t-126 349t123 365.5t313 147.5 q80 0 163 -33t128 -88v103h229q-24 -96 -36 -150q0 -367 2 -532l2 -248q0 -236 -128.5 -362t-354.5 -126zM528 807q-119 0 -193.5 -98.5t-74.5 -240.5t73 -227t193 -85t234 94v448q-82 109 -232 109z" glyph-name="gcircumflex" horiz-adv-x="1044" unicode="ĝ"/><glyph d="M828 1638q52 0 89 34t44 89h151q-6 -117 -86 -193.5t-196 -76.5t-195.5 77.5t-83.5 192.5h151q4 -57 39 -90t87 -33zM1233 272v-219q-193 -78 -410 -78q-317 0 -522 195t-205 507t205 516t530 204q197 0 361 -60v-227q-154 88 -364 88t-352 -143.5t-142 -363.5 t136 -369.5t359 -149.5q117 0 183 37v168q0 178 -4 264h231q-6 -168 -6 -369z" glyph-name="Gbreve" horiz-adv-x="1388" unicode="Ğ"/><glyph d="M528 1237q16 0 29 6q39 8 68.5 39t33.5 78h150q-6 -117 -85 -192.5t-195.5 -75.5t-196.5 75.5t-84 192.5h153q4 -59 39 -91t88 -32zM482 -457q-226 0 -343 39q13 36 56 164q98 -23 286 -22q250 0 273 225q8 86 8 135q-113 -98 -268 -98q-201 0 -327 131t-126 349 t123 365.5t313 147.5q80 0 163 -33t128 -88v103h229q-24 -96 -36 -150q0 -367 2 -532l2 -248q0 -236 -128.5 -362t-354.5 -126zM528 807q-119 0 -193.5 -98.5t-74.5 -240.5t73 -227t193 -85t234 94v448q-82 109 -232 109z" glyph-name="gbreve" horiz-adv-x="1044" unicode="ğ"/><glyph d="M713 1656q0 54 36.5 89t90 35t89.5 -35t36 -88t-36 -88t-89.5 -35t-90 34t-36.5 88zM1233 272v-219q-193 -78 -410 -78q-317 0 -522 195t-205 507t205 516t530 204q197 0 361 -60v-227q-154 88 -364 88t-352 -143.5t-142 -363.5t136 -369.5t359 -149.5q117 0 183 37v168 q0 178 -4 264h231q-6 -168 -6 -369z" glyph-name="Gdotaccent" horiz-adv-x="1388" unicode="Ġ"/><glyph d="M399 1254q0 54 37 89t89 35t88 -34.5t36 -88t-35.5 -88t-87.5 -34.5t-89.5 33.5t-37.5 87.5zM482 -457q-226 0 -343 39q13 36 56 164q98 -23 286 -22q250 0 273 225q8 86 8 135q-113 -98 -268 -98q-201 0 -327 131t-126 349t123 365.5t313 147.5q80 0 163 -33t128 -88 v103h229q-24 -96 -36 -150q0 -367 2 -532l2 -248q0 -236 -128.5 -362t-354.5 -126zM528 807q-119 0 -193.5 -98.5t-74.5 -240.5t73 -227t193 -85t234 94v448q-82 109 -232 109z" glyph-name="gdotaccent" horiz-adv-x="1044" unicode="ġ"/><glyph d="M954 -195q0 -188 -170 -364q-93 26 -151 45q94 147 94 283v18q0 49 -12 98l225 29q14 -43 14 -109zM823 -23q-319 0 -524 194t-205 506t206 516t531 204q186 0 361 -60v-227q-162 88 -350 88q-225 0 -367.5 -144.5t-142.5 -363.5t137 -368.5t360 -149.5q113 0 183 35v170 q0 178 -6 264h231q-4 -226 -4 -371l-2 -217q-184 -76 -408 -76z" glyph-name="Gcommaaccent" horiz-adv-x="1388" unicode="Ģ"/><glyph d="M621 1223v-17q0 -51 12 -98l-225 -31q-14 43 -15 109q0 188 170 364q46 -11 152 -45q-94 -145 -94 -282zM482 -457q-226 0 -343 39q13 36 56 164q98 -22 273 -22t234.5 86t59.5 274q-113 -98 -268 -98q-201 0 -327 131t-126 349t123 365.5t313 147.5q80 0 163 -33 t128 -88v103h229q-24 -96 -36 -150l4 -780q0 -236 -128.5 -362t-354.5 -126zM528 807q-119 0 -193.5 -98.5t-74.5 -240.5t73 -227t193 -85t234 94v448q-82 109 -232 109z" glyph-name="gcommaaccent" horiz-adv-x="1044" unicode="ģ"/><glyph d="M721 1647q-93 -130 -121 -166h-172l252 317h86q135 -162 256 -317h-180q-95 128 -121 166zM391 813h666v225q0 166 -4 338h239q-6 -195 -6 -354v-786q0 -27 6 -236h-239q4 147 4 293v334h-666v-334q0 -211 4 -293h-239q4 80 4 305v717q0 270 -4 354h239q-4 -119 -4 -440 v-123z" glyph-name="Hcircumflex" horiz-adv-x="1449" unicode="Ĥ"/><glyph d="M270 1538l252 320h86q86 -106 254 -320h-180q-23 33 -63.5 89t-55.5 77q-66 -88 -121 -166h-172zM1047 543v-361q0 -113 6 -182h-238q6 109 6 305v223q0 266 -219 267q-70 0 -137.5 -50.5t-102.5 -128.5v-438q0 -43 7 -178h-236q6 80 6 209v1132h-90q10 23 57 125h265 q-8 -66 -9 -206v-429q124 145 310 145t280.5 -114t94.5 -319z" glyph-name="hcircumflex" horiz-adv-x="1173" unicode="ĥ"/><glyph d="M1294 1376q0 -115 -6 -223h123v-149h-123v-715q0 -147 6 -289h-243q4 139 4 293v323h-662v-323q0 -211 4 -293h-241q4 82 4 291v713h-123v149h123v92l-4 131h241l-4 -129v-94h662v98l-4 125h243zM1055 805v199h-662v-199h662z" glyph-name="Hbar" horiz-adv-x="1458" unicode="Ħ"/><glyph d="M360 1225h334v-123h-334v-275q124 145 310 145t280 -113.5t94 -317.5v-363q0 -135 5 -180h-236q4 84 4 248v329q0 215 -217 216q-72 0 -138.5 -49.5t-101.5 -127.5v-440q0 -90 5 -176h-234q4 102 4 207v897h-98v123h98v112h-88q45 102 57 125h263q-6 -49 -7 -207v-30z " glyph-name="hbar" horiz-adv-x="1107" unicode="ħ"/><glyph d="M397 997v-649q0 -252 4 -348h-239q6 131 6 350v647q0 227 -6 379h239q-4 -127 -4 -379zM-18 1509q0 88 46 156t124 68t144 -44t99 -44q61 0 64 77h131q-2 -88 -45 -155.5t-117 -67.5t-154.5 44t-95.5 44q-57 0 -61 -78h-135z" glyph-name="Itilde" horiz-adv-x="565" unicode="Ĩ"/><glyph d="M145 207v543q0 139 -8 211h238q-6 -74 -6 -207v-547q0 -141 6 -207h-236q6 74 6 207zM121 1331q55 0 141 -45t92 -45h13q47 6 51 78h131q-2 -92 -46.5 -159.5t-118.5 -65.5t-155.5 46t-91.5 44q-55 0 -61 -78h-139q2 90 49 157.5t135 67.5z" glyph-name="itilde" horiz-adv-x="532" unicode="ĩ"/><glyph d="M399 997v-647q0 -254 4 -350h-241q6 131 6 350v647q0 231 -6 379h241q-4 -64 -4 -379zM6 1538v156h555v-156h-555z" glyph-name="Imacron" horiz-adv-x="565" unicode="Ī"/><glyph d="M-18 1149v156h553v-156h-553zM145 207v543q0 139 -8 211h238q-6 -74 -6 -207v-547q0 -141 6 -207h-236q6 74 6 207z" glyph-name="imacron" horiz-adv-x="512" unicode="ī"/><glyph d="M399 997v-647q0 -254 4 -350h-241q6 131 6 350v647q0 231 -6 379h241q-4 -64 -4 -379zM282 1638q52 0 90 35t42 88h149q-4 -117 -83.5 -193.5t-195.5 -76.5t-196 77.5t-84 192.5h152q4 -57 39 -90t87 -33z" glyph-name="Ibreve" horiz-adv-x="565" unicode="Ĭ"/><glyph d="M247 1237q52 0 90 35t40 88h151q-4 -117 -83.5 -192.5t-196.5 -75.5t-196 76.5t-83 191.5h152q4 -57 39 -90t87 -33zM145 207v543q0 139 -8 211h238q-6 -74 -6 -207v-547q0 -141 6 -207h-236q6 74 6 207z" glyph-name="ibreve" horiz-adv-x="512" unicode="ĭ"/><glyph d="M406 0q-218 -137 -218 -243q0 -105 99 -105q53 0 98 31q8 -64 16 -132q-92 -49 -191 -49t-157.5 51.5t-58.5 135.5q0 152 244 311h-76q6 131 6 350v647q0 231 -6 379h244q-6 -96 -7 -379v-684q0 -178 7 -313z" glyph-name="Iogonek" horiz-adv-x="565" unicode="Į"/><glyph d="M184 -498q-100 0 -158.5 51.5t-58.5 135.5q0 154 248 311h-76q6 74 6 207v543q0 158 -8 211h238q-6 -74 -6 -207v-547q0 -141 6 -207q-217 -139 -217 -256q0 -43 27.5 -68.5t75.5 -25.5t97 31l17 -132q-91 -47 -191 -47zM137 1253.5q0 53.5 38 91t91 37.5t91 -37.5 t38 -91t-38 -90.5t-91 -37t-91 37t-38 90.5z" glyph-name="iogonek" horiz-adv-x="512" unicode="į"/><glyph d="M399 997v-647q0 -254 4 -350h-241q6 131 6 350v647q0 231 -6 379h241q-4 -64 -4 -379zM158 1657q0 53 37 88t89 35t88 -35t36 -88t-36 -88t-88 -35t-89 35t-37 88z" glyph-name="Idotaccent" horiz-adv-x="565" unicode="İ"/><glyph d="M145 207v543q0 139 -8 211h238q-6 -74 -6 -207v-547q0 -141 6 -207h-236q6 74 6 207z" glyph-name="dotlessi" horiz-adv-x="512" unicode="ı"/><glyph d="M397 997v-647q0 -254 4 -350h-241q6 131 6 350v647q0 231 -6 379h241q-4 -127 -4 -379zM973 1022v-1016q0 -205 -107.5 -326.5t-302.5 -121.5q-94 0 -182 24v209q66 -37 161 -37t147 62.5t52 171.5v1034q0 260 -4 354h240q-4 -151 -4 -354z" glyph-name="IJ" horiz-adv-x="1136" unicode="Ĳ"/><glyph d="M143 207v543q0 168 -8 211h238q-6 -74 -6 -207v-547q0 -141 6 -207h-236q6 74 6 207zM135 1253.5q0 53.5 38 91t91 37.5t91 -37.5t38 -91t-38 -90.5t-91 -37t-91 37t-38 90.5zM631 1253.5q0 53.5 37 91t91 37.5t92 -37.5t38 -91t-38 -91.5t-92 -38t-91 38t-37 91.5z M868 750v-644q0 -299 -72.5 -440t-271.5 -141h-159v182h122q160 0 160 262v779q0 147 -8 213h235q-6 -72 -6 -211z" glyph-name="ij" horiz-adv-x="968" unicode="ĳ"/><glyph d="M313 1647l-118 -166h-175l252 317h86q225 -281 254 -317h-178q-35 48 -121 166zM430 1022v-965q0 -233 -101.5 -366t-308.5 -133q-90 0 -182 24v211q64 -39 160 -39t147.5 62.5t51.5 173.5v1032q0 260 -4 354h241q-4 -151 -4 -354z" glyph-name="Jcircumflex" horiz-adv-x="593" unicode="Ĵ"/><glyph d="M375 750v-644q0 -299 -73 -440t-271 -141h-160v182h123q160 0 160 262v779q0 147 -9 213h236q-6 -72 -6 -211zM-35 1081l254 318h84q18 -25 122.5 -152t133.5 -166h-180l-121 166l-121 -166h-172z" glyph-name="jcircumflex" horiz-adv-x="542" unicode="ĵ"/><glyph d="M766 -195q0 -188 -170 -364q-75 21 -152 45q94 147 95 283v18q0 49 -13 98l226 29q14 -43 14 -109zM391 342q0 -229 4 -342h-239q4 180 4 340v692q0 143 -4 344h239q-4 -106 -4 -342v-301q43 53 263 334t239 309h260q-20 -25 -73 -93.5t-462 -569.5q12 -14 273.5 -321.5 t345.5 -391.5h-315q-31 47 -531 643v-301z" glyph-name="Kcommaaccent" horiz-adv-x="1257" unicode="Ķ"/><glyph d="M698 -195q0 -188 -170 -364q-93 26 -151 45q94 147 94 283v18q0 49 -12 98l225 29q14 -43 14 -109zM358 199q0 -137 2 -199h-229q4 102 4 211v1130h-90q23 47 55 125h260q-4 -102 -4 -204v-703l387 402h287l-467 -437q53 -55 225.5 -237.5t282.5 -286.5h-285 q-281 289 -428 442v-243z" glyph-name="kcommaaccent" horiz-adv-x="1087" unicode="ķ"/><glyph d="M612 1798q-119 -164 -223 -313h-192l184 313h231zM391 195h230q166 0 305 4v-203q-84 4 -314 4h-456q6 233 6 375v622q0 225 -6 379h239l-4 -190v-991z" glyph-name="Lacute" horiz-adv-x="980" unicode="Ĺ"/><glyph d="M352 1278v-1071q0 -166 6 -207h-225q6 61 6 207v1134h-96q30 75 55 125h260q-6 -41 -6 -188zM571 1860l-225 -314h-190l184 314h231z" glyph-name="lacute" horiz-adv-x="524" unicode="ĺ"/><glyph d="M657 -195q0 -190 -170 -364q-58 19 -151 45q94 147 94 283v18q0 59 -12 98l227 29q12 -47 12 -109zM391 195h230q166 0 305 4v-203q-84 4 -314 4h-456q6 233 6 375v622q0 225 -6 379h239l-4 -190v-991z" glyph-name="Lcommaaccent" horiz-adv-x="980" unicode="Ļ"/><glyph d="M147 -231v18q0 53 -14 98l227 29q14 -43 15 -109q0 -188 -170 -364q-44 10 -154 45q96 145 96 283zM352 1278v-1071q0 -166 6 -207h-223q4 41 4 207v1134h-96q35 70 57 125h260q-8 -41 -8 -188z" glyph-name="lcommaaccent" horiz-adv-x="524" unicode="ļ"/><glyph d="M918 1407q-16 -104 -72 -377h-164q37 348 39 377h197zM393 195h230q168 0 303 4v-203q-84 4 -314 4h-456q6 233 6 375v624q0 223 -6 377h239l-2 -190v-991z" glyph-name="Lcaron" horiz-adv-x="980" unicode="Ľ"/><glyph d="M633 1098h-166q23 238 41 375h194zM352 1276v-1073q0 -166 6 -207h-225q6 61 6 207v1134h-96l55 125h260q-6 -39 -6 -186z" glyph-name="lcaron" horiz-adv-x="524" unicode="ľ"/><glyph d="M393 195h230q168 0 303 4v-203q-84 4 -314 4h-456q6 233 6 375v624q0 223 -6 377h239l-2 -190v-991zM616 798q0 54 38 92t92 38t92.5 -38t38.5 -92t-38.5 -92t-92.5 -38t-92 38t-38 92z" glyph-name="Ldot" horiz-adv-x="980" unicode="Ŀ"/><glyph d="M352 1280v-1073q0 -166 6 -207h-225q6 61 6 207v1136h-96l55 125h260q-6 -41 -6 -188zM461 812q0 54 39 92t92 38t92 -38t39 -92t-39 -92t-92 -38t-92 38t-39 92z" glyph-name="ldot" horiz-adv-x="759" unicode="ŀ"/><glyph d="M-4 627l702 424v-211q-231 -141 -702 -422v209zM393 195h230q168 0 303 4v-203q-84 4 -314 4h-456q6 233 6 375v624q0 223 -6 377h239l-2 -190v-991z" glyph-name="Lslash" horiz-adv-x="980" unicode="Ł"/><glyph d="M37 676l438 268v-190l-219 -136l2 3q-25 -14 -221 -134v189zM352 1280v-1073q0 -166 6 -207h-223q4 41 4 207v1136h-96l57 125h260q-8 -41 -8 -188z" glyph-name="lslash" horiz-adv-x="524" unicode="ł"/><glyph d="M1034 1798l-223 -315h-195l187 315h231zM381 287q0 -168 6 -287h-231q4 84 4 293v739q0 233 -4 363h98l827 -963v596q0 217 -8 348h242q-8 -154 -8 -340v-747q0 -205 2 -297h-103l-825 969v-674z" glyph-name="Nacute" horiz-adv-x="1466" unicode="Ń"/><glyph d="M889 1397l-223 -314h-193l184 314h232zM139 836h-96q8 12 59 125h248q4 -29 10 -132q123 150 320 150q354 0 354 -434v-314q0 -170 6 -231h-233q4 76 4 238v344q0 104 -57.5 156.5t-143.5 52.5t-150.5 -47.5t-99.5 -125.5v-380q0 -170 5 -238h-232q6 104 6 238v598z" glyph-name="nacute" horiz-adv-x="1161" unicode="ń"/><glyph d="M899 -195q0 -188 -170 -364q-39 13 -151 45q94 147 94 283v18q0 59 -13 98l228 29q12 -47 12 -109zM381 285q0 -205 6 -285h-231q4 164 4 293v739q0 106 -4 361h98q137 -162 412.5 -481.5t412.5 -481.5v596q0 217 -6 350h242q-10 -145 -10 -342v-782q0 -180 4 -258h-103 q-47 55 -825 967v-676z" glyph-name="Ncommaaccent" horiz-adv-x="1466" unicode="Ņ"/><glyph d="M485 -231v18q0 53 -14 98l227 29q14 -43 15 -109q0 -188 -170 -364q-25 6 -76 21.5t-78 23.5q96 145 96 283zM137 834h-94q27 53 59 127h246q8 -82 10 -134q127 150 332 150q172 0 258 -112.5t86 -321.5v-314q0 -168 4 -229h-231q2 76 2 238v342q0 92 -61.5 151.5 t-142.5 59.5t-146.5 -48.5t-100.5 -126.5v-378q0 -170 4 -238h-229q4 135 4 238v596z" glyph-name="ncommaaccent" horiz-adv-x="1161" unicode="ņ"/><glyph d="M686 1468q-168 213 -252 318h176q20 -29 60.5 -83t60.5 -81q25 35 119 164h176q-190 -238 -254 -318h-86zM381 285q0 -205 6 -285h-231q4 164 4 293v739q0 106 -4 361h98q137 -162 412.5 -481.5t412.5 -481.5v596q0 217 -6 350h242q-10 -145 -10 -342v-782q0 -180 4 -258 h-103q-47 55 -825 967v-676z" glyph-name="Ncaron" horiz-adv-x="1466" unicode="Ň"/><glyph d="M879 1386l-256 -319h-86q-29 35 -80 100.5t-93 118.5t-79 100h178q47 -76 119 -165q29 47 120 165h177zM139 836h-96q8 12 59 125h248q4 -29 10 -132q123 150 320 150q354 0 354 -434v-314q0 -170 6 -231h-233q4 76 4 238v344q0 104 -57.5 156.5t-143.5 52.5 t-150.5 -47.5t-99.5 -125.5v-380q0 -170 5 -238h-232q6 104 6 238v598z" glyph-name="ncaron" horiz-adv-x="1161" unicode="ň"/><glyph d="M911 -422q-109 0 -190 33v176q59 -35 167 -35t163 93.5t55 242.5q-157 190 -401 483t-324 390v-709q0 -145 6 -252h-231q4 164 4 293v739q0 106 -4 361h98q137 -162 412.5 -481.5t412.5 -481.5v596q0 217 -6 350h242q-10 -145 -10 -342v-774q0 -39 2 -132t0 -140 q-2 -184 -113 -297t-283 -113z" glyph-name="Eng" horiz-adv-x="1466" unicode="Ŋ"/><glyph d="M811 582q0 94 -56.5 151.5t-143.5 57.5t-152.5 -47.5t-100.5 -125.5v-380q0 -170 4 -238h-229q6 104 6 238v598h-96q35 63 59 125h248q4 -39 8 -134q125 150 328 150q348 0 348 -434l2 -508q0 -188 -79.5 -309t-245.5 -121q-74 0 -179 14q0 27 6.5 98.5t6.5 85.5 q61 -8 100 -8q158 0 164 244l1 85z" glyph-name="eng" horiz-adv-x="1161" unicode="ŋ"/><glyph d="M807 -25q-303 0 -507 204t-204 508t204 507t506 203t507 -205t205 -507t-204 -506t-507 -204zM807 168q205 0 338 148.5t133 369.5t-134 369.5t-337 148.5t-338 -146.5t-135 -370.5t134 -371.5t339 -147.5zM526 1540v154h555v-154h-555z" glyph-name="Omacron" horiz-adv-x="1613" unicode="Ō"/><glyph d="M76 480q0 208 142 353.5t344 145.5t342 -145.5t140 -354.5t-140 -351t-344 -142t-344 143t-140 351zM559 786q-115 0 -188.5 -95t-73.5 -218t74.5 -211t190.5 -88t189.5 88t73.5 219t-75.5 218t-190.5 87zM285 1149v156h555v-156h-555z" glyph-name="omacron" horiz-adv-x="1122" unicode="ō"/><glyph d="M807 -25q-303 0 -507 204t-204 508t204 507t506 203t507 -205t205 -507t-204 -506t-507 -204zM807 168q205 0 338 148.5t133 369.5t-134 369.5t-337 148.5t-338 -146.5t-135 -370.5t134 -371.5t339 -147.5zM806 1638q52 0 88 34t40 89h153q-6 -117 -86.5 -193.5 t-196.5 -76.5t-195 77.5t-83 192.5h152q4 -57 40 -90t88 -33z" glyph-name="Obreve" horiz-adv-x="1613" unicode="Ŏ"/><glyph d="M76 480q0 208 142 353.5t344 145.5t342 -145.5t140 -354.5t-140 -351t-344 -142t-344 143t-140 351zM559 786q-115 0 -188.5 -95t-73.5 -218t74.5 -211t190.5 -88t189.5 88t73.5 219t-75.5 218t-190.5 87zM563 1237q53 0 89 34t40 91h152q-6 -119 -86 -194.5t-196 -75.5 t-195.5 76.5t-83.5 193.5h153q4 -59 39 -92t88 -33z" glyph-name="obreve" horiz-adv-x="1122" unicode="ŏ"/><glyph d="M807 -25q-303 0 -507 204t-204 508t204 507t506 203t507 -205t205 -507t-204 -506t-507 -204zM807 168q205 0 338 148.5t133 369.5t-134 369.5t-337 148.5t-338 -146.5t-135 -370.5t134 -371.5t339 -147.5zM526 1483l174 309h215l-210 -309h-179zM889 1483l174 309h217 q-156 -217 -213 -309h-178z" glyph-name="Ohungarumlaut" horiz-adv-x="1613" unicode="Ő"/><glyph d="M76 480q0 208 142 353.5t344 145.5t342 -145.5t140 -354.5t-140 -351t-344 -142t-344 143t-140 351zM559 786q-115 0 -188.5 -95t-73.5 -218t74.5 -211t190.5 -88t189.5 88t73.5 219t-75.5 218t-190.5 87zM653 1393l-213 -308h-176l172 308h217zM1016 1393 q-176 -253 -213 -308h-176l174 308h215z" glyph-name="ohungarumlaut" horiz-adv-x="1122" unicode="ő"/><glyph d="M1235 0h-430q-307 0 -509 192.5t-202 493.5t203 495.5t508 194.5h461q180 0 272 4q-6 -66 -18 -200q-78 2 -283 2h-190v-375h131q236 0 323 4v-197q-88 4 -323 4h-131v-425h184q240 0 321 2v-197q-79 2 -317 2zM811 190v992q-211 0 -345 -136.5t-134 -358.5t135 -359.5 t344 -137.5z" glyph-name="OE" horiz-adv-x="1660" unicode="Œ"/><glyph d="M1722 549q0 -66 -8 -96h-682q8 -141 89 -215t227 -74t319 94v-176q-154 -98 -336 -98q-279 0 -403 200q-59 -94 -157.5 -146t-213.5 -52q-205 0 -344 143t-139 351t141 353.5t342 145.5q106 0 201.5 -51t159.5 -137q127 209 357 209t338.5 -134.5t108.5 -316.5zM555 786 q-117 0 -189.5 -90t-72.5 -216t75.5 -216t191.5 -90t189.5 88t73.5 218t-75.5 218t-192.5 88zM1286 821q-115 0 -179.5 -72.5t-76.5 -158.5h494q-4 104 -63.5 167.5t-174.5 63.5z" glyph-name="oe" horiz-adv-x="1804" unicode="œ"/><glyph d="M817 1798l-221 -315h-195l189 315h227zM393 549v-187q0 -236 6 -362h-243q6 84 6 365v675q0 262 -6 336h368q213 0 349.5 -104.5t136.5 -300.5q0 -272 -258 -357l188 -282q90 -135 254 -332h-303l-338 549h-160zM393 1192v-473h123q106 0 182 62.5t76 174.5t-73.5 174 t-186.5 62h-121z" glyph-name="Racute" horiz-adv-x="1218" unicode="Ŕ"/><glyph d="M201 1083q103 170 186 314h231q-209 -293 -223 -314h-194zM631 981q61 0 110 -25q-8 -35 -22 -106.5t-21 -106.5q-49 25 -103 25t-120.5 -42t-105.5 -95l4 -156v-266q0 -86 4 -209h-234q4 139 4 211v623h-94l58 127h227q2 -29 7 -95.5t7 -97.5q119 213 279 213z" glyph-name="racute" horiz-adv-x="761" unicode="ŕ"/><glyph d="M741 -195q0 -188 -170 -364q-31 7 -153 45q96 145 96 283v18q0 53 -14 98l227 29q14 -43 14 -109zM393 549v-189q0 -193 4 -360h-241q4 84 4 365v673q0 262 -4 338h327q233 0 380 -99t147 -306q0 -268 -260 -359q25 -37 82 -119.5t88 -130.5q100 -156 272 -362h-303 q-113 180 -338 549h-158zM393 1192v-473h121q109 0 184.5 62.5t75.5 174.5t-74.5 174t-185.5 62h-121z" glyph-name="Rcommaaccent" horiz-adv-x="1218" unicode="Ŗ"/><glyph d="M383 -195q0 -188 -170 -364q-53 18 -152 45q94 147 95 283v18q0 59 -13 98l228 29q12 -45 12 -109zM631 981q61 0 110 -25q-8 -35 -22 -106.5t-21 -106.5q-49 25 -103 25t-120.5 -42t-105.5 -95l4 -156v-266q0 -86 4 -209h-234q4 139 4 211v623h-94l58 127h227 q2 -29 7 -95.5t7 -97.5q119 213 279 213z" glyph-name="rcommaaccent" horiz-adv-x="761" unicode="ŗ"/><glyph d="M475 1468l-252 320h172l125 -164l121 164h176l-256 -320h-86zM393 549v-187q0 -236 6 -362h-243q6 84 6 365v675q0 262 -6 336h368q213 0 349.5 -104.5t136.5 -300.5q0 -272 -258 -357l188 -282q90 -135 254 -332h-303l-338 549h-160zM393 1192v-473h123q106 0 182 62.5 t76 174.5t-73.5 174t-186.5 62h-121z" glyph-name="Rcaron" horiz-adv-x="1218" unicode="Ř"/><glyph d="M406 1221q60 87 120 165h176q-106 -133 -253 -319h-87q-29 35 -80 100.5t-93 118.5t-78 100h174q72 -104 121 -165zM631 981q61 0 110 -25q-8 -35 -22 -106.5t-21 -106.5q-49 25 -103 25t-120.5 -42t-105.5 -95l4 -156v-266q0 -86 4 -209h-234q4 139 4 211v623h-94 l58 127h227q2 -29 7 -95.5t7 -97.5q119 213 279 213z" glyph-name="rcaron" horiz-adv-x="761" unicode="ř"/><glyph d="M848 1798q-58 -82 -223 -313h-193l184 313h232zM387 1052q0 -74 52.5 -128t184.5 -136t189 -145q113 -117 113 -283t-131 -276.5t-334 -110.5t-363 80q25 106 54 215q117 -111 297 -110q102 0 165.5 49t63.5 132t-56.5 142.5t-140.5 108.5t-126 78.5t-125 107t-83 245.5 q0 167 119 273.5t318 106.5q147 0 284 -58v-213q-111 86 -276 87q-92 0 -148.5 -45.5t-56.5 -119.5z" glyph-name="Sacute" horiz-adv-x="1036" unicode="Ś"/><glyph d="M334 715q0 -74 101.5 -121t159.5 -82t99 -97.5t41 -148.5q0 -135 -97 -212t-271 -77t-291 66q18 102 39 193q117 -94 245 -95q66 0 108 34t42 77t-41 78t-100.5 65.5t-119 67.5t-100 100.5t-40.5 145.5q0 123 92 196.5t254 73.5q106 0 241 -45v-191q-118 72 -240 72 t-122 -100zM328 1083q123 209 186 314h229q-209 -293 -223 -314h-192z" glyph-name="sacute" horiz-adv-x="821" unicode="ś"/><glyph d="M236 1483l251 317h86q25 -33 127.5 -158.5t126.5 -158.5h-180l-119 166q-84 -117 -120 -166h-172zM387 1052q0 -74 52.5 -128t184.5 -136t189 -145q113 -117 113 -283t-131 -276.5t-334 -110.5t-363 80q25 106 54 215q117 -111 297 -110q102 0 165.5 49t63.5 132 t-56.5 142.5t-140.5 108.5t-126 78.5t-125 107t-83 245.5q0 167 119 273.5t318 106.5q147 0 284 -58v-213q-111 86 -276 87q-92 0 -148.5 -45.5t-56.5 -119.5z" glyph-name="Scircumflex" horiz-adv-x="1036" unicode="Ŝ"/><glyph d="M334 715q0 -73 100.5 -119.5t159.5 -81.5t100 -98.5t41 -149.5q0 -135 -97 -212t-271 -77t-291 66q18 102 39 193q117 -94 245 -95q66 0 108 34t42 77t-41 78t-100.5 65.5t-119 67.5t-100 100.5t-40.5 145.5q0 123 92 196.5t254 73.5q106 0 241 -45v-191q-118 72 -240 72 t-122 -100zM414 1245q-26 -38 -121 -166h-172l252 320h84q88 -106 256 -320h-178q-68 92 -121 166z" glyph-name="scircumflex" horiz-adv-x="821" unicode="ŝ"/><glyph d="M678 344q0 137 -213 254q-130 74 -225 166.5t-95 258.5q0 165 119.5 270.5t297.5 105.5t304 -58v-213q-109 88 -276 89q-82 0 -143.5 -48.5t-61.5 -120.5t53.5 -126t135.5 -105t109.5 -68.5t134 -104.5t106.5 -259t-105.5 -278.5t-269.5 -126.5q-25 -53 -39 -80 q168 -27 168 -170q0 -86 -65.5 -139.5t-178.5 -53.5q-63 0 -141 25q2 18 5 57t5 57q66 -27 109 -26q104 0 104 75.5t-125 75.5q-35 0 -53 -4q14 29 41 88.5t43 89.5q-188 8 -326 76q35 142 54 215q117 -111 299 -110q102 0 165.5 50t63.5 138z" glyph-name="Scedilla" horiz-adv-x="1036" unicode="Ş"/><glyph d="M516 246q0 39 -24.5 66.5t-50 42t-116.5 61.5t-153.5 111.5t-62.5 184.5t92 193.5t254 73.5q106 0 241 -45v-191q-117 72 -231 72q-53 0 -96 -29.5t-43 -71.5t42 -75t101 -60.5t119.5 -62.5t102.5 -99.5t42 -166.5t-70.5 -174t-197.5 -90q-6 -14 -20.5 -43t-20.5 -43 q168 -27 168 -170q0 -86 -66 -139.5t-156 -53.5t-163 25q8 80 8 114q127 -50 171 -17.5t44 67.5q0 76 -127 75q-33 0 -51 -4q12 23 39.5 86.5t44.5 96.5q-166 8 -260 63q18 102 39 193q117 -94 245 -95q66 0 111 33t45 72z" glyph-name="scedilla" horiz-adv-x="821" unicode="ş"/><glyph d="M827 1786q-116 -143 -254 -318h-86q-41 51 -124.5 158t-126.5 160h176q20 -29 30 -42l90 -122q97 130 119 164h176zM385 1048q0 -72 53.5 -126t186.5 -136t194 -149q106 -117 107 -264q0 -182 -131 -291t-331 -109t-368 78q35 142 54 215q117 -111 299 -110 q90 0 159.5 54t69.5 134q0 131 -224 260t-266.5 227.5t-42.5 176.5q0 178 119.5 284.5t297.5 106.5t304 -58v-213q-109 88 -276 89q-90 0 -147.5 -48.5t-57.5 -120.5z" glyph-name="Scaron" horiz-adv-x="1036" unicode="Š"/><glyph d="M334 716q0 -44 41 -78t100.5 -61.5t118.5 -62.5t100 -98.5t41 -149.5q0 -135 -98 -212t-271 -77t-290 66q18 102 39 193q117 -94 245 -95q61 0 105.5 33t44.5 77t-41 79t-100.5 65.5t-119 67.5t-100 100.5t-40.5 145.5q0 123 92 196.5t254 73.5q106 0 241 -45v-191 q-117 72 -231 72q-63 0 -97 -27.5t-34 -71.5zM709 1386q-250 -314 -254 -319h-86q-29 35 -80 100.5t-93 118.5t-79 100h176q72 -104 121 -165l118 165h177z" glyph-name="scaron" horiz-adv-x="821" unicode="š"/><glyph d="M831 1182h-112q-2 -119 -2 -387v-441q0 -236 6 -354h-244q6 139 6 354v629q0 80 -4 199h-114q-184 0 -320 -6v200h791q254 0 329 2q-5 -43 -16 -202q-137 6 -320 6zM494 -197q0 49 -13 99q45 4 226 30q14 -45 14 -108q0 -189 -170 -365q-75 21 -152 45q94 145 95 281v18z " glyph-name="Tcommaaccent" horiz-adv-x="1208" unicode="Ţ"/><glyph d="M311 -219v18q0 53 -14 99q55 6 227 30q14 -45 15 -108q0 -189 -170 -365q-25 8 -76 22.5t-78 22.5q96 143 96 281zM416 367q0 -199 126 -199q64 0 113 29q13 -78 35 -166q-76 -47 -215 -47q-280 0 -280 387v411h-148v179h148v210q75 15 225 50q-4 -115 -4 -189v-71h270 l-31 -179h-239v-415z" glyph-name="tcommaaccent" horiz-adv-x="755" unicode="ţ"/><glyph d="M829 1182h-112q-2 -119 -2 -387v-441q0 -236 6 -354h-244q6 139 6 354v629q0 80 -4 199h-114q-184 0 -320 -6v200h791q254 0 329 2q-5 -43 -16 -202q-137 6 -320 6zM563 1458l-254 320h176l121 -166l119 166h178l-256 -320h-84z" glyph-name="Tcaron" horiz-adv-x="1214" unicode="Ť"/><glyph d="M774 1438q-26 -157 -69 -377h-164q29 300 37 377h196zM416 367q0 -199 126 -199q64 0 113 29q13 -78 35 -166q-76 -47 -215 -47q-280 0 -280 387v411h-148v179h148v210q75 15 225 50q-4 -115 -4 -189v-71h270l-31 -179h-239v-415z" glyph-name="tcaron" horiz-adv-x="755" unicode="ť"/><glyph d="M229 612v154h775v-154h-775zM831 1182h-112q-2 -119 -2 -387v-441q0 -236 6 -354h-244q6 139 6 354v629q0 80 -4 199h-114q-184 0 -320 -6v200h791q254 0 329 2q-5 -43 -16 -202q-137 6 -320 6z" glyph-name="Tbar" horiz-adv-x="1208" unicode="Ŧ"/><glyph d="M418 367q0 -199 124 -199q60 0 113 31q8 -35 35 -168q-80 -47 -198 -47q-295 0 -295 381v415h-150v178h150v72h-121v123h121q0 31 -2 35l225 33q-2 -23 -2 -68h223v-123h-223v-72h268l-31 -178h-237v-413z" glyph-name="tbar" horiz-adv-x="755" unicode="ŧ"/><glyph d="M385 1018v-486q0 -174 85 -265t230 -91t228.5 93t83.5 266v483q0 264 -2 358h237q-2 -98 -2 -360v-484q0 -266 -147.5 -409t-401.5 -143t-398 148t-144 404v484q0 272 -4 360h241q-6 -92 -6 -358zM578 1735q59 0 130 -45t103 -45q61 0 63 77h132q-2 -90 -47 -156.5 t-119 -66.5t-149 44t-89 44t-22 -4q-44 -6 -48 -74h-139q2 90 49 158t136 68z" glyph-name="Utilde" horiz-adv-x="1398" unicode="Ũ"/><glyph d="M358 743v-176q0 -223 37 -312t160 -89q76 0 128 49t69 127v444q0 121 -2 175h233q-4 -98 -4 -168v-590q0 -129 20 -203h-200q-6 23 -15.5 67t-13.5 62q-86 -143 -285 -143q-164 0 -258 105.5t-94 305.5v437h-92l59 127h262q-4 -143 -4 -218zM444 1331q55 0 141.5 -45 t92.5 -45h12q47 6 51 78h131q-2 -92 -46 -159.5t-118 -65.5t-155.5 46t-91.5 44q-56 0 -62 -78h-139q2 90 49 157.5t135 67.5z" glyph-name="utilde" horiz-adv-x="1118" unicode="ũ"/><glyph d="M387 1018v-486q0 -174 85 -265t230 -91t228.5 94.5t83.5 266.5v481q0 266 -4 358h237q-2 -96 -2 -360v-484q0 -266 -147.5 -409t-400.5 -143t-397 148t-144 404v484q0 184 -4 360h241q-6 -92 -6 -358zM424 1538v156h553v-156h-553z" glyph-name="Umacron" horiz-adv-x="1398" unicode="Ū"/><glyph d="M283 1149v154h553v-154h-553zM358 743v-176q0 -223 37 -312t160 -89q76 0 128 49t69 127v444q0 121 -2 175h233q-4 -98 -4 -168v-590q0 -129 20 -203h-200q-6 23 -15.5 67t-13.5 62q-86 -143 -285 -143q-154 0 -253 100t-99 311v437h-92l59 127h262q-4 -143 -4 -218z" glyph-name="umacron" horiz-adv-x="1118" unicode="ū"/><glyph d="M387 1018v-486q0 -174 85 -265t230 -91t228.5 94.5t83.5 266.5v481q0 266 -4 358h237q-2 -96 -2 -360v-484q0 -266 -147.5 -409t-400.5 -143t-397 148t-144 404v484q0 184 -4 360h241q-6 -92 -6 -358zM697 1638q52 0 90 35t42 88h150q-4 -117 -84 -193.5t-196 -76.5 t-195.5 77.5t-83.5 192.5h151q4 -57 39 -90t87 -33z" glyph-name="Ubreve" horiz-adv-x="1398" unicode="Ŭ"/><glyph d="M558 1237q50 0 90 35t42 88h152q-6 -117 -85 -192.5t-196 -75.5t-196.5 76.5t-83.5 191.5h153q4 -59 39 -91t85 -32zM358 743v-176q0 -223 37 -312t160 -89q76 0 128 49t69 127v444q0 121 -2 175h233q-4 -98 -4 -168v-590q0 -129 20 -203h-200q-6 23 -15.5 67t-13.5 62 q-86 -143 -285 -143q-154 0 -253 100t-99 311v437h-92l59 127h262q-4 -143 -4 -218z" glyph-name="ubreve" horiz-adv-x="1118" unicode="ŭ"/><glyph d="M387 1018v-486q0 -174 85 -265t230 -91t228.5 94.5t83.5 266.5v481q0 266 -4 358h237q-2 -96 -2 -360v-484q0 -266 -147.5 -409t-400.5 -143t-397 148t-144 404v484q0 184 -4 360h241q-6 -92 -6 -358zM496 1655q0 80 59 134t145 54t145.5 -54t59.5 -134t-58.5 -134.5 t-145.5 -54.5t-146 54.5t-59 134.5zM618 1658q0 -38 22 -65.5t60 -27.5t60 24.5t22 63.5t-22.5 63.5t-59 24.5t-59.5 -22.5t-23 -60.5z" glyph-name="Uring" horiz-adv-x="1398" unicode="Ů"/><glyph d="M354 1251q0 82 57.5 134.5t146.5 52.5t147.5 -53.5t58.5 -133.5t-58.5 -135t-146.5 -55t-146.5 54t-58.5 136zM475 1253q0 -37 22.5 -64.5t60.5 -27.5t61.5 24.5t23.5 63.5t-23.5 64.5t-60.5 25.5t-60.5 -24.5t-23.5 -61.5zM358 743v-176q0 -223 37 -312t160 -89 q76 0 128 49t69 127v444q0 121 -2 175h233q-4 -98 -4 -168v-590q0 -129 20 -203h-200q-6 23 -15.5 67t-13.5 62q-86 -143 -285 -143q-154 0 -253 100t-99 311v437h-92l59 127h262q-4 -143 -4 -218z" glyph-name="uring" horiz-adv-x="1118" unicode="ů"/><glyph d="M385 1018v-486q0 -174 85 -265t230 -91t228.5 93t83.5 266v483q0 264 -2 358h237q-2 -98 -2 -360v-484q0 -266 -147.5 -409t-401.5 -143t-398 148t-144 404v484q0 272 -4 360h241q-6 -92 -6 -358zM752 1792q-157 -226 -213 -309h-179q121 211 172 309h220zM1112 1792 q-83 -125 -211 -309h-178q125 219 174 309h215z" glyph-name="Uhungarumlaut" horiz-adv-x="1398" unicode="Ű"/><glyph d="M223 1083q128 225 172 310h217q-186 -270 -213 -310h-176zM975 1393l-211 -310h-178q58 102 174 310h215zM358 743v-176q0 -223 37 -312t160 -89q76 0 128 49t69 127v444q0 121 -2 175h233q-4 -98 -4 -168v-590q0 -129 20 -203h-200q-6 23 -15.5 67t-13.5 62 q-86 -143 -285 -143q-154 0 -253 100t-99 311v437h-92l59 127h262q-4 -143 -4 -218z" glyph-name="uhungarumlaut" horiz-adv-x="1118" unicode="ű"/><glyph d="M412 -309q0 147 219 293q-225 18 -351 163.5t-126 384.5v521q0 160 -4 323h241q-6 -129 -6 -325v-519q0 -92 33 -161q66 -195 280 -195q147 0 230.5 94.5t83.5 264.5v512q0 246 -2 329h237q-2 -98 -2 -360v-453q0 -231 -96 -375.5t-277 -187.5q-45 -16 -100 -31 q-170 -121 -170 -221q0 -45 29 -69.5t77 -24.5t95 29q8 -90 16 -129q-91 -52 -191 -52t-158 52.5t-58 136.5z" glyph-name="Uogonek" horiz-adv-x="1398" unicode="Ų"/><glyph d="M596 -309q0 152 235 309q-28 34 -37.5 57t-11.5 27t-6 22.5t-6 22.5q-82 -143 -297 -143q-150 0 -245 102t-95 309v437h-92l59 127h262q-4 -76 -4 -230v-164q0 -219 37 -308t164 -89q76 0 126 48t67 124v387q0 162 -2 232h233q-4 -66 -4 -226v-532q0 -129 20 -203 q-209 -131 -208 -254q0 -92 98 -92q51 0 98 29q10 -102 17 -129q-88 -52 -190 -52t-160 52.5t-58 136.5z" glyph-name="uogonek" horiz-adv-x="1118" unicode="ų"/><glyph d="M958 1647q-90 -126 -120 -166h-172q153 197 252 317h86q86 -104 253 -317h-178q-35 48 -121 166zM1905 1376l-492 -1380h-162q-98 279 -295 840q-274 -766 -301 -840h-159q-37 104 -244 672.5t-256 707.5h242q57 -168 170.5 -504.5t171.5 -504.5q10 10 32 43 q9 24 102 301.5t134 396.5q-66 180 -103 268h244q102 -303 328 -950q6 -10 18.5 -29.5t18.5 -29.5q131 408 319 1009h232z" glyph-name="Wcircumflex" horiz-adv-x="1918" unicode="Ŵ"/><glyph d="M729 1247q-27 -39 -121 -166h-174l254 318h86q16 -20 120.5 -149.5t133.5 -168.5h-178zM319 770l152 -422l215 613h109q14 -39 103 -281t122 -338l151 467q39 125 48 152h229q-70 -160 -96 -236l-273 -741h-90l-256 665l-250 -665h-96l-287 749q-20 53 -28 72l-62 156 h250q36 -128 59 -191z" glyph-name="wcircumflex" horiz-adv-x="1456" unicode="ŵ"/><glyph d="M506 322v274q-53 86 -160.5 259t-163.5 266t-166 255h275q27 -57 122 -215t216 -364q64 109 162 272q98 164 176 307h258q-16 -29 -63.5 -99.5t-110.5 -174.5t-316 -506v-274q0 -187 6 -322h-239q4 197 4 322zM621 1647l-121 -166h-172q84 104 252 317h86 q16 -20 120.5 -149t133.5 -168h-179q-92 124 -120 166z" glyph-name="Ycircumflex" horiz-adv-x="1241" unicode="Ŷ"/><glyph d="M526 1245q-40 -58 -120 -166h-175q129 160 252 320h88q168 -213 254 -320h-180q-50 81 -119 166zM86 -397l33 172q94 0 125 8q48 4 83.5 66.5t61 120t33.5 75.5q-197 442 -412 916h262q72 -193 263 -672q188 473 249 672h246q-312 -737 -402 -935t-114 -225 q-111 -199 -266 -198h-162z" glyph-name="ycircumflex" horiz-adv-x="1044" unicode="ŷ"/><glyph d="M829.5 1526q-47.5 0 -83 34.5t-35.5 82t35.5 81t83 33.5t82 -33.5t34.5 -81t-34.5 -82t-82 -34.5zM303 1642.5q0 47.5 36 81t83 33.5t82 -33.5t35 -81t-35 -82t-82 -34.5t-83 34.5t-36 82zM508 324v272l-324 522q-66 109 -168 258h275q68 -134 183.5 -324t154.5 -255 l235 395q61 104 105 184h258q-12 -20 -51 -76.5t-62 -93.5l-379 -610v-274q0 -187 6 -322h-237q4 197 4 324z" glyph-name="Ydieresis" horiz-adv-x="1241" unicode="Ÿ"/><glyph d="M881 1798q-146 -201 -224 -313h-192l184 313h232zM768 193q233 0 311 4v-199q-78 2 -311 2h-709q70 117 340.5 600t327.5 582h-293q-254 0 -325 -4q-12 135 -17 200q94 -2 363 -2h628q-129 -233 -159 -286l-516 -897h360z" glyph-name="Zacute" horiz-adv-x="1153" unicode="Ź"/><glyph d="M348 1083q63 104 187 314h229q-86 -123 -223 -314h-193zM231 961h617q-78 -129 -232.5 -388.5t-232.5 -388.5h272q74 0 185 4v-190q-43 2 -148 2h-645q156 256 467 772h-270q-104 0 -152 -4l-6 195q43 -2 145 -2z" glyph-name="zacute" horiz-adv-x="892" unicode="ź"/><glyph d="M446 1657q0 53 37 88t89 35t89 -35t37 -88t-35.5 -88t-89 -35t-90.5 35t-37 88zM768 193q233 0 311 4v-199q-78 2 -311 2h-709q70 117 340.5 600t327.5 582h-293q-254 0 -325 -4q-12 135 -17 200q94 -2 363 -2h628q-129 -233 -159 -286l-516 -897h360z" glyph-name="Zdotaccent" horiz-adv-x="1153" unicode="Ż"/><glyph d="M315 1254q0 54 37 89t89 35t89 -35t37 -89t-35.5 -87.5t-89 -33.5t-90.5 33.5t-37 87.5zM231 961h617q-78 -129 -232.5 -388.5t-232.5 -388.5h272q74 0 185 4v-190q-43 2 -148 2h-645q156 256 467 772h-270q-104 0 -152 -4l-6 195q43 -2 145 -2z" glyph-name="zdotaccent" horiz-adv-x="892" unicode="ż"/><glyph d="M535 1468q-73 86 -252 318h174q51 -74 121 -164q98 135 120 164h176q-190 -238 -253 -318h-86zM768 193q233 0 311 4v-199q-78 2 -311 2h-709q135 233 668 1182h-293q-254 0 -325 -4q-12 135 -17 200q94 -2 363 -2h628q-102 -184 -153 -274l-522 -909h360z" glyph-name="Zcaron" horiz-adv-x="1153" unicode="Ž"/><glyph d="M748 1386q-250 -314 -254 -319h-86l-252 319h176q72 -104 121 -165l118 165h177zM231 961h617q-78 -129 -232.5 -388.5t-232.5 -388.5h272q74 0 185 4v-190q-43 2 -148 2h-645q156 256 467 772h-270q-104 0 -152 -4l-6 195q43 -2 145 -2z" glyph-name="zcaron" horiz-adv-x="892" unicode="ž"/><glyph d="M160 625v163h200l17 117q33 236 143.5 364t278.5 128q111 0 184 -31v-201q-66 51 -160 52q-190 0 -233 -334l-12 -95h235v-163h-260l-51 -357q-53 -373 -167 -527.5t-327 -154.5q-104 0 -182 43v201q70 -57 178 -57q53 0 90 18.5t89.5 91t103.5 396.5l51 346h-178z" glyph-name="florin" horiz-adv-x="1087" unicode="ƒ"/><glyph d="M459 1655q0 82 58 135t146.5 53t146.5 -53t58 -133t-58 -135.5t-146.5 -55.5t-146.5 53.5t-58 135.5zM573 1911l162 291h215q-96 -147 -196 -291h-181zM580 1658q0 -36 22.5 -64.5t60.5 -28.5t61.5 25.5t23.5 63.5t-24 63.5t-60 25.5t-60 -24.5t-24 -60.5zM1329 0h-268 q-6 18 -141 352h-529q-14 -37 -68.5 -169.5t-68.5 -182.5h-240q43 84 160 354l444 1041h91l471 -1084q57 -135 149 -311zM461 526h387l-195 502z" glyph-name="Aringacute" unicode="Ǻ"/><glyph d="M272 1251q0 82 58.5 134.5t146.5 52.5t147.5 -53.5t59.5 -133.5t-59.5 -135t-146.5 -55t-146.5 54t-59.5 136zM395 1526q53 96 160 293h217q-152 -227 -197 -293h-180zM395 1253q0 -37 22.5 -64.5t60.5 -27.5t60.5 24.5t22.5 63.5t-23.5 64.5t-59.5 25.5t-59.5 -24.5 t-23.5 -61.5zM483 981q354 0 385 -322q6 -57 6 -124v-224q0 -199 39 -311h-215q-8 70 -12 106q-115 -127 -301 -126q-137 0 -225 82.5t-88 216.5q0 297 444 317q115 4 154 4v31q0 82 -63.5 132t-151.5 50q-131 0 -254 -82l-74 158q141 92 356 92zM281 283q0 -63 45 -104.5 t105 -41.5t129 31t112 76v202l-166 -6q-225 -6 -225 -157z" glyph-name="aringacute" horiz-adv-x="989" unicode="ǻ"/><glyph d="M774 1485l187 313h229l-221 -313h-195zM1333 193q207 0 285 8v-201h-655q-41 258 -58 354h-473q-12 -25 -178 -354h-250q90 150 383 716t342 660h436q221 0 338 4q-12 -139 -16 -200q-82 4 -322 4h-204q31 -158 69 -406h209q207 0 283 4v-196q-76 4 -271 4h-180 q27 -180 64 -397h198zM512 530h356q-4 27 -92 555q-47 -102 -138 -291.5t-126 -263.5z" glyph-name="AEacute" horiz-adv-x="1716" unicode="Ǽ"/><glyph d="M692 1083q123 209 187 314h229q-209 -293 -223 -314h-193zM474 981q210 0 298 -131q131 145 338 145q115 0 203 -40t160.5 -138.5t72.5 -267.5q0 -61 -6 -98h-684q8 -145 97 -218t231 -72t307 95v-174q-143 -96 -336 -96q-276 0 -395 149h-4q-143 -156 -373 -155 q-137 0 -224 81.5t-87 217.5q0 272 354 309q76 8 229 12v31q0 84 -57 133t-143 49q-131 0 -254 -82l-74 158q137 92 347 92zM682 256q0 2 -2 4q-27 53 -27 186l-147 -6q-225 -10 -225 -157q0 -63 45 -104.5t107 -41.5t133 33t114 84q2 0 2 2zM1109 819q-114 0 -179.5 -72.5 t-75.5 -158.5h494q-4 104 -64.5 167.5t-174.5 63.5z" glyph-name="aeacute" horiz-adv-x="1552" unicode="ǽ"/><glyph d="M807 1397q215 0 399 -125l101 119h204q-133 -150 -188 -211q195 -205 195 -502t-204 -499t-507 -202q-225 0 -406 117l-96 -108h-201q129 147 181 207q-189 201 -189 499t204 501.5t507 203.5zM807 168q207 0 340 148.5t133 369.5q0 177 -100 318q-463 -539 -643 -746 q121 -90 270 -90zM807 1202q-205 0 -339 -146.5t-134 -369.5q0 -178 94 -319q430 500 645 747q-115 88 -266 88zM698 1495q27 43 187 315h229q-43 -61 -223 -315h-193z" glyph-name="Oslashacute" horiz-adv-x="1613" unicode="Ǿ"/><glyph d="M872 1397l-223 -314h-192q124 212 186 314h229zM1042 474q0 -204 -139 -346t-344 -142q-166 0 -291 92q-27 -31 -82 -92h-120q43 45 139 153q-129 137 -129 343t141 351.5t342 145.5q160 0 289 -98q49 49 84 92h119q-92 -100 -138 -154q129 -141 129 -345zM546 786 q-102 0 -176.5 -89t-74.5 -207t47 -193l375 430q-69 59 -171 59zM559 170q115 0 190.5 89t75.5 203t-49 197l-375 -430q76 -59 158 -59z" glyph-name="oslashacute" horiz-adv-x="1122" unicode="ǿ"/><glyph d="M831 1182h-112q-2 -119 -2 -387v-441q0 -236 6 -354h-244q6 139 6 354v629q0 80 -4 199h-114q-184 0 -320 -6v200h791q254 0 329 2q-5 -43 -16 -202q-137 6 -320 6zM494 -197q0 49 -13 99q45 4 226 30q14 -45 14 -108q0 -189 -170 -365q-75 21 -152 45q94 145 95 281v18z " glyph-name="uni021A" horiz-adv-x="1208" unicode="Ț"/><glyph d="M139 1081l254 318h84q18 -25 123 -152t133 -166h-180l-121 166l-121 -166h-172z" glyph-name="circumflex" horiz-adv-x="872" unicode="ˆ"/><glyph d="M393 1069l-254 320h176l121 -166l119 166h178l-256 -320h-84z" glyph-name="caron" horiz-adv-x="872" unicode="ˇ"/><glyph d="M427 1237q52 0 88 34t42 91h150q-4 -119 -84 -194.5t-197 -75.5t-196 77.5t-83 192.5h152q4 -59 40 -92t88 -33z" glyph-name="breve" horiz-adv-x="856" unicode="˘"/><glyph d="M307 1255.5q0 55.5 36 90t89 34.5t90 -35t37 -89t-36 -88.5t-90 -34.5t-90 33.5t-36 89z" glyph-name="dotaccent" horiz-adv-x="856" unicode="˙"/><glyph d="M215 1252q0 81 58.5 134.5t146.5 53.5t147.5 -53.5t59.5 -133.5t-59.5 -135t-147.5 -55t-146.5 54t-58.5 135zM338 1254q0 -36 21.5 -63.5t60.5 -27.5t61.5 24.5t22.5 62.5t-23.5 63.5t-59.5 25.5t-59.5 -24.5t-23.5 -60.5z" glyph-name="ring" horiz-adv-x="839" unicode="˚"/><glyph d="M172 -309q0 154 250 309q49 0 151 -4q-109 -72 -156.5 -130.5t-47.5 -123.5q0 -88 98 -88q51 0 98 29q9 -88 17 -129q-90 -52 -192 -52t-160 52.5t-58 136.5z" glyph-name="ogonek" horiz-adv-x="849" unicode="˛"/><glyph d="M313 1331q55 0 141.5 -45t92.5 -45h12q47 6 51 78h131q-2 -92 -46.5 -159.5t-118.5 -65.5t-155 46t-91 44q-56 0 -62 -78h-139q2 90 49 157.5t135 67.5z" glyph-name="tilde" horiz-adv-x="872" unicode="˜"/><glyph d="M152 1085l172 308h217l-213 -308h-176zM903 1393l-211 -308h-178l174 308h215z" glyph-name="hungarumlaut" horiz-adv-x="931" unicode="˝"/><glyph d="M506 1264q-80 -145 -252 -441h-193l207 441h238z" glyph-name="uni0374" horiz-adv-x="536" unicode="ʹ"/><glyph d="M68 -270l227 440h217l-233 -440h-211z" glyph-name="uni0375" horiz-adv-x="536" unicode="͵"/><glyph d="M705 1403l-220 -320h-192q25 39 93.5 167t82.5 153h236z" glyph-name="tonos" horiz-adv-x="874" unicode="΄"/><glyph d="M688 1407q-23 -42 -170 -328h-162q102 262 131 328h201zM796 1122q-44 0 -76 31t-32 76t31 76.5t75 31.5t76.5 -31.5t32.5 -74.5t-31.5 -76t-75.5 -33zM224 1122q-44 0 -75.5 31t-31.5 76t30.5 76.5t74.5 31.5t77 -31.5t33 -74.5t-32 -76t-76 -33z" glyph-name="dieresistonos" horiz-adv-x="1005" unicode="΅"/><glyph d="M205 1004h-176l106 403h209q-63 -170 -139 -403zM1329 0h-268q-6 18 -141 352h-529q-14 -37 -68.5 -169.5t-68.5 -182.5h-240q43 84 160 354l444 1041h91l471 -1084q57 -135 149 -311zM461 526h387l-195 502z" glyph-name="Alphatonos" horiz-adv-x="1347" unicode="Ά"/><glyph d="M113 747q0 60 43 102t102 42t102 -42t43 -102t-43 -103.5t-102 -43.5t-102 43.5t-43 103.5z" glyph-name="anoteleia" horiz-adv-x="516" unicode="·"/><glyph d="M272 1407l-139 -403h-174q35 129 107 403h206zM625 805h133q236 0 321 4v-199q-129 6 -321 6h-133v-428h186q240 0 319 2v-196q-80 4 -315 4h-426q12 107 9 215.5t-3 124.5v692q0 203 -6 342h420q215 0 319 4l-34 -200q-88 4 -265 4t-204 -2v-373z" glyph-name="Epsilontonos" horiz-adv-x="1228" unicode="Έ"/><glyph d="M-43 1004q89 349 104 403h209q-35 -96 -139 -403h-174zM590 811h665v223q0 211 -6 338h242q-6 -129 -6 -354v-787q0 -131 6 -235h-242q6 111 6 295v332h-665v-334q0 -209 4 -293h-240q4 160 4 307v715q0 190 -4 354h240q-4 -119 -4 -440v-121z" glyph-name="Etatonos" horiz-adv-x="1650" unicode="Ή"/><glyph d="M272 1407l-139 -403h-174q35 129 107 403h206zM600 993v-649q0 -252 4 -348h-239q4 88 4 350v647q0 281 -4 379h239q-4 -127 -4 -379z" glyph-name="Iotatonos" horiz-adv-x="763" unicode="Ί"/><glyph d="M938 -25q-307 0 -510 203t-203 505t202 508t502 206t509 -204t209 -507t-201 -507t-508 -204zM936 1204q-205 0 -339 -151.5t-134 -363.5t132 -366.5t338 -154.5t340 152.5t135 364.5t-133 365.5t-339 153.5zM281 1407l-140 -403h-176l109 403h207z" glyph-name="Omicrontonos" horiz-adv-x="1738" unicode="Ό"/><glyph d="M-25 1001l105 406h205q-23 -68 -138 -406h-172zM1065 322q0 -142 4 -322h-238q4 197 5 322v274q-45 76 -251 403.5t-239 376.5h275q12 -27 121 -210.5t216 -368.5q240 401 338 579h258q-10 -18 -489 -780v-274z" glyph-name="Upsilontonos" horiz-adv-x="1587" unicode="Ύ"/><glyph d="M139 1004h-176q39 141 107 403h206zM780 0h-284q-254 0 -324 -6v196q84 -6 260 -6h119q-147 88 -234.5 239.5t-87.5 311.5q0 305 209 503t510 198t505 -205t204 -496q0 -168 -91 -316.5t-235 -234.5h105q193 0 274 6v-196q-70 6 -340 6h-268v201q143 80 231 223t88 301 q0 215 -138 365.5t-345 150.5t-344 -153.5t-133 -362.5q2 -164 89 -304t230 -220v-201z" glyph-name="Omegatonos" horiz-adv-x="1753" unicode="Ώ"/><glyph d="M459 1407q-7 -16 -168 -328h-164q29 66 131 328h201zM567 1122q-45 0 -75.5 31t-30.5 76t30.5 76.5t74.5 31.5t77 -31.5t33 -74.5t-32 -76t-77 -33zM-3 1122q-44 0 -76 31t-32 76t31 76.5t75 31.5t76.5 -31.5t32.5 -74.5t-31.5 -76t-75.5 -33zM143 207v543q0 158 -6 211 h238q-8 -66 -8 -207v-547q0 -150 8 -207h-238q6 74 6 207z" glyph-name="iotadieresistonos" horiz-adv-x="534" unicode="ΐ"/><glyph d="M1329 0h-268q-6 18 -141 352h-529q-14 -37 -68.5 -169.5t-68.5 -182.5h-240q53 109 160 354l444 1041h91l471 -1084q57 -135 149 -311zM461 526h387l-195 502z" glyph-name="Alpha" unicode="Α"/><glyph d="M555 0h-401q6 129 6 362v619q0 313 -4 395h376q186 0 306 -91t120 -247q0 -94 -51 -169.5t-133 -110.5q121 -33 197 -128t76 -222q0 -188 -136.5 -298t-355.5 -110zM811 404q0 110 -69.5 176.5t-184.5 66.5h-164v-477h148q127 0 198.5 62t71.5 172zM393 1210v-403h133 q78 0 141.5 60.5t63.5 146.5t-58.5 141t-160.5 55h-119z" glyph-name="Beta" horiz-adv-x="1148" unicode="Β"/><glyph d="M162 360v650q0 248 -4 364h485q119 0 291 4q-8 -66 -10 -90l-9 -114q-76 4 -292 4h-228v-820q0 -249 2 -360h-239q4 96 4 362z" glyph-name="Gamma" horiz-adv-x="978" unicode="Γ"/><glyph d="M1313 0h-1299q80 160 121 259t252 598t229 540h91l460 -1080q89 -208 146 -317zM328 190h651l-326 848q-182 -488 -325 -848z" glyph-name="Delta" horiz-adv-x="1327" unicode="Δ"/><glyph d="M391 807h170q207 0 285 4v-197q-78 4 -285 4h-170v-425h187q240 0 319 2v-197q-80 2 -315 2h-426q6 92 6 340v692q0 205 -6 344h460q184 0 279 4q-27 -145 -35 -200q-88 4 -264 4t-205 -2v-375z" glyph-name="Epsilon" horiz-adv-x="1015" unicode="Ε"/><glyph d="M768 193q233 0 311 4v-199q-78 2 -311 2h-709q70 117 340.5 600t327.5 582h-293q-254 0 -325 -4q-12 135 -17 200q94 -2 363 -2h628q-129 -233 -159 -286l-516 -897h360z" glyph-name="Zeta" horiz-adv-x="1153" unicode="Ζ"/><glyph d="M391 815h668v223q0 211 -6 338h239q-6 -190 -6 -354v-786q0 -27 6 -236h-239q6 111 6 295v332h-668v-332q0 -211 6 -295h-239q4 160 4 305v717q0 190 -4 354h239q-6 -117 -6 -440v-121z" glyph-name="Eta" horiz-adv-x="1449" unicode="Η"/><glyph d="M938 778q119 0 184 4v-176q-106 4 -188 4h-258q-80 0 -187 -4v176l185 -4h264zM802 -27q-304 0 -508 203t-204 507t205 507t507 203t506.5 -205t204.5 -508t-203.5 -505t-507.5 -202zM803 166q205 0 338 147.5t133 368.5t-134 368.5t-337 147.5t-338 -145.5t-135 -369.5 t134 -370.5t339 -146.5z" glyph-name="Theta" horiz-adv-x="1611" unicode="Θ"/><glyph d="M399 997v-647q0 -254 4 -350h-241q6 131 6 350v647q0 231 -6 379h241q-4 -64 -4 -379z" glyph-name="Iota" horiz-adv-x="565" unicode="Ι"/><glyph d="M393 344q0 -229 4 -344h-241q4 90 4 342v692q0 242 -4 342h241q-4 -104 -4 -340v-301l328 410q113 143 172 231h262q-20 -25 -60.5 -77.5t-60.5 -77.5l-413 -506l430 -504q106 -125 188 -211h-315q-70 98 -133 172l-398 471v-299z" glyph-name="Kappa" horiz-adv-x="1257" unicode="Κ"/><glyph d="M1077 -12l-399 993l-399 -993h-265q61 106 136 280l483 1123h74l491 -1143q25 -55 69 -143.5t56 -116.5h-246z" glyph-name="Lambda" horiz-adv-x="1337" unicode="Λ"/><glyph d="M1335 0q0 123 -10 301l-33 643q-311 -571 -415 -768h-60l-422 768l-41 -637q-4 -70 -7 -176t-5 -131h-240q4 53 14.5 170t14.5 180l72 1034h166l481 -880l477 880h164l59 -1056q8 -182 25 -328h-240z" glyph-name="Mu" horiz-adv-x="1681" unicode="Μ"/><glyph d="M379 287q0 -168 6 -287h-231q4 84 4 293v739q0 233 -4 363h98l827 -963v596q0 217 -8 348h242q-8 -154 -8 -340v-747q0 -205 2 -297h-103l-825 969v-674z" glyph-name="Nu" horiz-adv-x="1466" unicode="Ν"/><glyph d="M387 201h332q119 0 303 4v-209q-92 4 -303 4h-334q-201 0 -285 -4v209q70 -4 287 -4zM338 1376h453q53 0 225 4v-211q-80 4 -244 5h-434q-98 -1 -229 -5v211q68 -4 229 -4zM397 813h310q133 0 235 4v-209q-80 4 -235 4h-408q-49 0 -123 -4v207q66 -2 221 -2z" glyph-name="Xi" horiz-adv-x="1126" unicode="Ξ"/><glyph d="M811 -25q-307 0 -511 204t-204 504t204 507t503 207t508 -205t209 -507t-201 -506t-508 -204zM808 168q208 0 341 148.5t133 365.5t-133 369.5t-340 152.5t-340 -150.5t-133 -364.5t132 -367.5t340 -153.5z" glyph-name="Omicron" horiz-adv-x="1611" unicode="Ο"/><glyph d="M1241 1114v-739q0 -236 6 -375h-243q4 180 4 373v809h-613v-809q0 -238 6 -373h-243q6 152 6 375v620q0 217 -6 381h1089q-6 -197 -6 -262z" glyph-name="Pi" horiz-adv-x="1406" unicode="Π"/><glyph d="M393 502v-154q0 -217 6 -348h-243q6 127 6 360v701q0 205 -6 315h358q231 0 364.5 -118.5t133.5 -317.5t-132 -318.5t-372 -119.5h-115zM393 1196v-516h105q123 0 199.5 71.5t76.5 187.5t-74.5 186.5t-201.5 70.5h-105z" glyph-name="Rho" horiz-adv-x="1097" unicode="Ρ"/><glyph d="M811 1192h-391q82 -115 346 -483q-235 -329 -367 -525h428q174 0 250 2v-188q-46 2 -196 2h-850q432 618 491 705q-47 68 -239.5 336t-239.5 335h752q203 0 274 2q-2 -32 -18 -190q-78 4 -240 4z" glyph-name="Sigma" horiz-adv-x="1171" unicode="Σ"/><glyph d="M836 1182h-113q-2 -119 -2 -387v-441q0 -236 6 -354h-244q6 139 6 354v629q0 80 -4 199h-114q-184 0 -320 -6v200h791q254 0 329 2q-5 -43 -16 -202q-139 6 -319 6z" glyph-name="Tau" horiz-adv-x="1222" unicode="Τ"/><glyph d="M506 322v274q-53 86 -160.5 259t-163.5 266t-166 255h275q27 -57 122 -215t216 -364q64 109 162 272q98 164 176 307h258q-16 -29 -63.5 -99.5t-110.5 -174.5t-316 -506v-274q0 -187 6 -322h-239q4 197 4 322z" glyph-name="Upsilon" horiz-adv-x="1241" unicode="Υ"/><glyph d="M1497 690q0 -254 -165 -419t-431 -193q0 -43 4 -125h-223q4 66 4 125q-268 29 -430 193.5t-162 418.5t165 422t427 195q0 57 -4 131h223q-4 -39 -4 -131q268 -29 432 -196t164 -421zM322 692q0 -170 97 -282.5t267 -137.5v842q-168 -25 -266 -138.5t-98 -283.5zM1266 691 q0 169 -98.5 283.5t-266.5 139.5v-842q170 23 267.5 136.5t97.5 282.5z" glyph-name="Phi" horiz-adv-x="1591" unicode="Φ"/><glyph d="M614 879l304 497h260q-72 -94 -156 -222t-289 -447q330 -532 461 -707h-276q-12 20 -74 122t-244 392q-148 -242 -198 -320t-79.5 -130t-37.5 -64h-265q88 113 146 200t176.5 272t140.5 218q-157 255 -444 686h278q63 -117 153 -260t144 -237z" glyph-name="Chi" horiz-adv-x="1214" unicode="Χ"/><glyph d="M336 1376q0 -404 51 -532t119.5 -163.5t140.5 -45.5v434q0 231 -4 307h231q-4 -80 -4 -307v-434q181 30 244 169.5t65.5 257.5t2.5 187v127h235q-16 -111 -16 -205q0 -676 -531 -737v-115q0 -242 4 -319h-231q4 92 4 319v115q-494 59 -526 617q-15 262 -21 325h236z" glyph-name="Psi" horiz-adv-x="1519" unicode="Ψ"/><glyph d="M688 0h-287q-254 0 -321 -6v196q82 -6 256 -6h123q-147 88 -235.5 239.5t-88.5 311.5q0 305 210 503t510 198t505 -205t205 -496q0 -168 -92.5 -316.5t-235.5 -234.5h104q193 0 277 6v-196q-72 6 -342 6h-266v201q143 80 231 223t88 301q0 215 -139 365.5t-346 150.5 t-342 -152.5t-133 -363.5q2 -164 88 -304t231 -220v-201z" glyph-name="Omega" horiz-adv-x="1695" unicode="Ω"/><glyph d="M397 997v-647q0 -254 4 -350h-241q6 131 6 350v647q0 231 -6 379h241q-4 -64 -4 -379zM485 1481q-47 0 -82.5 34.5t-35.5 82t35.5 81t82.5 33.5t81 -33.5t34 -81t-34 -82t-81 -34.5zM-41 1597.5q0 47.5 35 81t82 33.5t82 -33.5t35 -81t-35 -82t-82 -34.5t-82 34.5t-35 82 z" glyph-name="Iotadieresis" horiz-adv-x="559" unicode="Ϊ"/><glyph d="M506 322v274q-53 86 -160.5 259t-163.5 266t-166 255h275q27 -57 122 -215t216 -364q64 109 162 272q98 164 176 307h258q-16 -29 -63.5 -99.5t-110.5 -174.5t-316 -506v-274q0 -187 6 -322h-239q4 197 4 322zM838 1485q-47 0 -83 34.5t-36 82t36 81t83 33.5t80.5 -33.5 t33.5 -81t-33.5 -82t-80.5 -34.5zM311 1601.5q0 47.5 35 81t82 33.5t82 -33.5t35 -81t-35 -82t-82 -34.5t-82 34.5t-35 82z" glyph-name="Upsilondieresis" horiz-adv-x="1241" unicode="Ϋ"/><glyph d="M860 1403l-217 -320h-190l42 77q42 77 79.5 148.5t50.5 94.5h235zM1082 168q24 0 44 10l23 -162q-63 -34 -139 -34t-122 56t-77 187q-113 -248 -336 -248q-176 0 -286.5 147.5t-110.5 355.5t113.5 353.5t293.5 145.5q208 -1 308 -234q41 176 51 218l207 -19 q-74 -260 -99 -416q4 -25 13.5 -90t16.5 -101t20.5 -81t34.5 -66.5t45 -21.5zM525 788q-89 0 -152.5 -89t-63.5 -220t62.5 -222t153.5 -91t159 86t82 231q-25 141 -88.5 223t-152.5 82z" glyph-name="alphatonos" horiz-adv-x="1189" unicode="ά"/><glyph d="M373 1083l176 320h233q-2 -2 -94 -140.5t-125 -179.5h-190zM490 -18q-190 0 -301 77.5t-111 206.5q0 88 55 146.5t143 83.5q-82 27 -129 82t-47 129q0 123 101.5 197.5t265.5 74.5t309 -59v-195q-119 78 -276 78q-84 0 -132.5 -30t-48.5 -84t51.5 -86t144.5 -32t130 7 v-172q-55 6 -146 6t-144.5 -33t-53.5 -93t54.5 -95t148.5 -35q154 0 301 86l18 -170q-143 -90 -333 -90z" glyph-name="epsilontonos" horiz-adv-x="886" unicode="έ"/><glyph d="M500 1081l176 320h233l-221 -320h-188zM137 238v596h-35q12 14 13 127h233q8 -82 10 -134q125 150 320 150q356 0 356 -434v-793q0 -170 4 -231h-231q2 76 2 239v822q0 94 -59.5 152.5t-142.5 58.5t-148.5 -48.5t-100.5 -126.5v-378q0 -170 4 -238h-229q4 136 4 238z" glyph-name="etatonos" horiz-adv-x="1136" unicode="ή"/><glyph d="M559 1401q-196 -290 -217 -320h-190q51 91 172 320h235zM143 207v543q0 158 -6 211h238q-8 -66 -8 -207v-547q0 -150 8 -207h-238q6 74 6 207z" glyph-name="iotatonos" horiz-adv-x="534" unicode="ί"/><glyph d="M569 1081h-163l131 326h200zM845 1122q-44 0 -76 32t-32 76t32 76.5t75 32.5t75.5 -32.5t32.5 -75.5t-31.5 -76t-75.5 -33zM273 1122q-44 0 -75.5 32t-31.5 76t30.5 76.5t74.5 32.5t77 -32.5t33 -75.5t-32 -76t-76 -33zM104 782q-31 0 -47 -8l-34 170q84 37 155 37 q115 0 170 -67.5t55 -184.5l-18 -293q0 -131 53.5 -200.5t149.5 -69.5q236 0 235 371q0 242 -116 424h241q117 -205 117 -446t-127 -387t-339 -146t-330.5 114.5t-118.5 313.5l20 270q0 102 -66 102z" glyph-name="upsilondieresistonos" horiz-adv-x="1142" unicode="ΰ"/><glyph d="M1082 168q24 0 44 10l23 -162q-63 -34 -139 -34t-122 56t-77 187q-113 -248 -336 -248q-176 0 -286.5 147.5t-110.5 355.5t113.5 353.5t293.5 145.5q208 -1 308 -234q41 176 51 218l207 -19q-74 -260 -99 -416q4 -25 13.5 -90t16.5 -101t20.5 -81t34.5 -66.5t45 -21.5z M525 788q-89 0 -152.5 -89t-63.5 -220t62.5 -222t153.5 -91t159 86t82 231q-25 141 -88.5 223t-152.5 82z" glyph-name="alpha" horiz-adv-x="1189" unicode="α"/><glyph d="M623 -20q-141 0 -254 51v-234q0 -131 4 -278h-232v1411q0 272 110.5 415.5t332.5 143.5q156 0 279.5 -109.5t123.5 -283.5q0 -113 -51 -200t-148 -114q133 -23 221.5 -126t88.5 -248q0 -188 -134 -308t-341 -120zM590 676q-57 0 -84 -6v176q123 0 197.5 67t74.5 171 t-55 161.5t-146 57.5t-148.5 -72t-57.5 -205v-795q96 -65 224 -65t199.5 69.5t71.5 184.5t-75.5 185.5t-200.5 70.5z" glyph-name="beta" horiz-adv-x="1183" unicode="β"/><glyph d="M159 768q-46 0 -83 -12l-62 186q52 18 138 18t171 -46t130 -113.5t77 -187.5t23 -302q-2 -27 0 -41q39 221 118 387t212 334l170 -180q-201 -180 -285 -353t-139 -448l-41 -506h-178l20 502q-4 37 -11 115t-13.5 139.5t-17.5 142t-30.5 140t-46 114t-66.5 83t-86 28.5z " glyph-name="gamma" horiz-adv-x="1148" unicode="γ"/><glyph d="M78 424q0 178 100.5 296t263.5 159q-276 199 -276 346q0 121 113.5 186.5t315.5 65.5t400 -103q-4 -16 -10 -102t-8 -103q-209 133 -410 134q-164 0 -164 -103q0 -45 68 -103.5t196 -149.5t195.5 -151.5t117.5 -151.5t50 -195q0 -195 -140 -329t-340 -134t-336 130 t-136 308zM553 178q102 0 173 77t71 189t-64 191t-166 106q-34 0 -87.5 -33.5t-88.5 -68.5t-58.5 -92.5t-21.5 -124.5q2 -102 71 -173t171 -71z" glyph-name="delta" horiz-adv-x="1107" unicode="δ"/><glyph d="M490 -18q-190 0 -301 77.5t-111 206.5q0 88 55 146.5t143 83.5q-82 27 -129 82t-47 129q0 123 101.5 197.5t265.5 74.5t309 -59v-195q-119 78 -276 78q-84 0 -132.5 -30t-48.5 -84t51.5 -86t144.5 -32t130 7v-172q-55 6 -146 6t-144.5 -33t-53.5 -93t54.5 -95t148.5 -35 q154 0 301 86l18 -170q-143 -90 -333 -90z" glyph-name="epsilon" horiz-adv-x="886" unicode="ε"/><glyph d="M872 -57q0 -135 -116 -328q-66 20 -181 49q80 133 80 221t-176 132t-282.5 142.5t-106.5 284.5q0 420 494 844q-250 -25 -416 -24l-12 174q67 -6 202 -6q299 0 478 53l2 -174q-522 -414 -523 -805q0 -125 56.5 -187.5t152.5 -88.5t145.5 -43t126 -63t76.5 -181z" glyph-name="zeta" horiz-adv-x="894" unicode="ζ"/><glyph d="M137 238v596h-35q12 14 13 127h233q8 -82 10 -134q125 150 320 150q356 0 356 -434v-793q0 -170 4 -231h-231q2 76 2 239v822q0 94 -59.5 152.5t-142.5 58.5t-148.5 -48.5t-100.5 -126.5v-378q0 -170 4 -238h-229q4 136 4 238z" glyph-name="eta" horiz-adv-x="1161" unicode="η"/><glyph d="M567 1468q223 0 346 -209.5t123 -534.5t-124 -531.5t-347 -206.5t-346 206.5t-123 532.5t124 534.5t347 208.5zM566 172q226 0 249 465h-498q23 -465 249 -465zM565.5 1278q-110.5 0 -174.5 -121t-74 -340h496q-8 219 -72.5 340t-175 121z" glyph-name="theta" horiz-adv-x="1134" unicode="θ"/><glyph d="M145 207v543q0 139 -8 211h238q-6 -74 -6 -207v-547q0 -141 6 -207h-236q6 74 6 207z" glyph-name="iota" horiz-adv-x="491" unicode="ι"/><glyph d="M379 0h-238v958h238v-428q111 135 275.5 263.5t338.5 199.5l97 -170q-227 -92 -424 -272q20 -27 201.5 -259.5t228.5 -291.5h-287q-145 195 -307 403q-90 -96 -123 -151v-252z" glyph-name="kappa" horiz-adv-x="1103" unicode="κ"/><glyph d="M88 1364q152 0 226.5 -23.5t111.5 -58.5t49 -53.5t49 -73.5t107 -213l407 -942h-247q-84 283 -250 666l-262 -666h-263q250 547 412 911q-94 250 -160 260q-57 20 -180 21v172z" glyph-name="lambda" horiz-adv-x="1046" unicode="λ"/><glyph d="M350 -147v-152q0 -102 8 -199h-225q6 74 6 207v1122h-92q49 104 59 127h263q-4 -143 -4 -219v-172q0 -213 50 -307t183 -94q76 0 141.5 51t79.5 125v387q0 160 -2 229h234q-4 -66 -4 -223v-532q0 -90 14 -203h-193q-4 18 -9 39.5t-11 48.5t-10 41q-96 -143 -256 -143 t-238 129q6 -86 6 -262z" glyph-name="mu" horiz-adv-x="1146" unicode="μ"/><glyph d="M924 727q0 -334 -412 -745h-88q-41 100 -211 500.5t-201 475.5h262q39 -119 129.5 -358.5t118.5 -314.5q190 229 191 452q0 121 -47 221h225q33 -131 33 -231z" glyph-name="nu" horiz-adv-x="999" unicode="ν"/><glyph d="M657 784q45 0 103 9v-179q-23 4 -70 4q-154 0 -255 -54t-101 -158q0 -129 211 -181q340 -80 340 -293q0 -117 -125 -305l-172 92q70 105 70 157t-50.5 91t-132.5 58q-160 35 -267.5 120t-107.5 213t77 211.5t208 122.5q-205 61 -205 226q0 94 73 171.5t216 157.5l55 31 q-211 -33 -372 -39q-8 88 -29 180q494 0 733 49q8 -108 8 -163q-455 -156 -454 -355q0 -70 66.5 -118t180.5 -48z" glyph-name="xi" horiz-adv-x="933" unicode="ξ"/><glyph d="M76 480q0 208 142 353.5t344 145.5t342 -145.5t140 -354.5t-140 -351t-344 -142t-344 143t-140 351zM559 786q-115 0 -188.5 -95t-73.5 -218t74.5 -211t190.5 -88t189.5 88t73.5 219t-75.5 218t-190.5 87z" glyph-name="omicron" horiz-adv-x="1120" unicode="ο"/><glyph d="M1079 758h-88v-385q0 -266 27 -373h-230q-12 80 -12 309v449h-258v-758h-205v758h-260v184h1028q47 0 133 4v-190q-35 2 -135 2z" glyph-name="pi" horiz-adv-x="1294" unicode="π"/><glyph d="M371 -467h-234v963q0 238 123 369.5t338 131.5t340 -135t125 -361t-123 -371.5t-328 -145.5q-141 0 -241 71v-522zM367 496v-238q92 -86 213 -86t186 89t65 233t-67.5 229.5t-175.5 85.5t-164.5 -83t-56.5 -230z" glyph-name="rho" horiz-adv-x="1159" unicode="ρ"/><glyph d="M293 475q0 -215 278 -295q137 -39 191.5 -102.5t54.5 -185.5t-119 -291q-127 8 -192 14q102 156 102 233q0 121 -157 162q-162 41 -270.5 151.5t-108.5 311.5t147.5 344.5t355.5 143.5q86 0 209 -25v-229q-78 57 -200.5 57t-206.5 -85t-84 -204z" glyph-name="sigma1" horiz-adv-x="882" unicode="ς"/><glyph d="M979 448.5q0 -192.5 -122 -328.5t-328 -136t-327.5 137t-121.5 361t141 358.5t377 134.5h567q-37 -132 -55 -195h-246q115 -139 115 -331.5zM309 474q0 -140 59.5 -220t160 -80t161 81t60.5 208q0 182 -111 317h-35q-137 0 -216 -83t-79 -223z" glyph-name="sigma" horiz-adv-x="1173" unicode="σ"/><glyph d="M276 961h650l-31 -183q-111 4 -137 4h-195q-6 -219 -6 -475q0 -145 109 -145q49 0 84 22l34 -153q-76 -49 -182 -49q-268 0 -268 292q0 238 4 508h-76q-143 0 -215 -8v174q69 13 229 13z" glyph-name="tau" horiz-adv-x="960" unicode="τ"/><glyph d="M104 782q-31 0 -47 -8l-34 170q84 37 155 37q115 0 170 -67.5t55 -184.5l-18 -293q0 -131 53.5 -200.5t149.5 -69.5q236 0 235 371q0 242 -116 424h241q117 -205 117 -446t-127 -387t-339 -146t-330.5 114.5t-118.5 313.5l20 270q0 102 -66 102z" glyph-name="upsilon" horiz-adv-x="1142" unicode="υ"/><glyph d="M74 486q0 208 143 345.5t375 157.5v185q0 145 -6 229h211q-4 -94 -4 -229v-185q229 -23 373.5 -159t144.5 -345t-145.5 -346t-370.5 -155v-224q0 -160 4 -215h-211l4 215v226q-240 27 -379 159.5t-139 340.5zM295 485q0 -131 83 -217t214 -96v625q-129 -8 -213 -94.5 t-84 -217.5zM1090 485q0 129 -84 216.5t-213 95.5v-625q129 10 213 97t84 216z" glyph-name="phi" horiz-adv-x="1386" unicode="φ"/><glyph d="M129 784q-31 0 -49 -8l-35 172q61 31 131 31q123 0 207 -111.5t166 -371.5q80 156 239 462h238q-254 -475 -381 -714q117 -365 172 -455q47 -72 105 -72q31 0 53 9l37 -172q-61 -25 -125 -25q-125 0 -210 110.5t-173 368.5q-108 -198 -250 -473h-238l390 723 q-90 294 -115 344.5t-62.5 116t-99.5 65.5z" glyph-name="chi" horiz-adv-x="1040" unicode="χ"/><glyph d="M836 170q311 46 311 438q0 196 -90 350h237q86 -145 86 -393t-144 -410t-400 -178v-444h-218l3 203v241q-238 16 -375 143.5t-137 344.5l18 278q0 119 -35 215h223q41 -86 41 -215l-16 -260q0 -279 281 -315v1001l-3 256h218v-1255z" glyph-name="psi" horiz-adv-x="1460" unicode="ψ"/><glyph d="M868 528q0 -344 160 -344q88 0 136 77t48 204q0 268 -192 487q88 4 244 9q178 -254 178 -508q0 -201 -102.5 -335t-282.5 -134q-104 0 -187.5 58t-107.5 159q-35 -104 -97.5 -161.5t-199.5 -57.5q-180 0 -280.5 132t-100.5 337q0 252 186 510q160 -4 240 -9 q-195 -229 -195 -487q0 -133 47.5 -210t129.5 -77q166 0 165 324q0 158 -6 198h223q-6 -70 -6 -172z" glyph-name="omega" horiz-adv-x="1529" unicode="ω"/><glyph d="M338 1240q0 48 35 82t83 34t81.5 -34t33.5 -82t-33.5 -83t-81.5 -35t-83 35t-35 83zM-68 1240q0 48 35 82t82 34t81 -34t34 -82t-34 -83t-81 -35t-82 35t-35 83zM143 207v543q0 158 -6 211h238q-8 -66 -8 -207v-547q0 -150 8 -207h-238q6 74 6 207z" glyph-name="iotadieresis" horiz-adv-x="534" unicode="ϊ"/><glyph d="M635 1240q0 48 35 82t82 34t80.5 -34t33.5 -82t-33.5 -83t-80.5 -35t-82 35t-35 83zM227 1240q0 48 34 82t82 34t82 -34t34 -82t-35 -83t-81 -35t-81 35t-35 83zM586 166q233 0 233 371q0 246 -114 424h239q117 -199 117 -443t-126 -390t-339 -146t-332 114.5t-119 313.5 q0 51 11.5 142t11.5 128q0 102 -68 102q-31 0 -45 -8l-35 170q80 37 156 37q223 0 223 -252l-18 -293q0 -131 53 -200.5t152 -69.5z" glyph-name="upsilondieresis" horiz-adv-x="1142" unicode="ϋ"/><glyph d="M651 1083h-190q25 39 89 164t83 156h237zM74 477q0 209 141 353.5t344 144.5t343 -145.5t140 -354.5t-141 -352t-345 -143t-343 144t-139 353zM556 780q-116 0 -189.5 -94t-73.5 -217t74.5 -212t190.5 -89t190.5 88t74.5 219t-75.5 218t-191.5 87z" glyph-name="omicrontonos" horiz-adv-x="1124" unicode="ό"/><glyph d="M842 1403l-217 -320h-193l176 320h234zM586 166q233 0 233 371q0 246 -114 424h239q117 -199 117 -443t-126 -390t-339 -146t-332 114.5t-119 313.5q0 51 11.5 142t11.5 128q0 102 -68 102q-31 0 -45 -8l-35 170q80 37 156 37q223 0 223 -252l-18 -293q0 -131 53 -200.5 t152 -69.5z" glyph-name="upsilontonos" horiz-adv-x="1142" unicode="ύ"/><glyph d="M864 1081h-190q59 106 174 320h233q-84 -130 -217 -320zM1438 451q0 -201 -102.5 -335t-280.5 -134q-104 0 -187.5 58t-107.5 159q-94 -219 -299 -219q-178 0 -278.5 132t-100.5 334q0 252 184 512q156 -8 242 -8q-197 -231 -197 -487q0 -133 48.5 -210t129.5 -77 q166 0 166 324q0 158 -6 198h223q-6 -74 -6 -172q0 -344 160 -344q88 0 136 77t48 204q0 266 -194 487q74 0 246 8q176 -252 176 -507z" glyph-name="omegatonos" horiz-adv-x="1540" unicode="ώ"/><glyph d="M207 1761h242q90 -123 204 -286h-200q-39 48 -246 286zM389 805h133q236 0 322 4v-199q-129 6 -322 6h-133v-428h186q240 0 320 2v-196q-80 2 -315 2h-426q12 110 9 216.5t-3 125.5v692q0 203 -6 342h419q215 0 320 4l-35 -200q-88 4 -265 4t-204 -2v-373z" glyph-name="uni0400" horiz-adv-x="1019" unicode="Ѐ"/><glyph d="M716 1524q-48 0 -83 34.5t-35 82.5t35 82t83 34t81.5 -33.5t33.5 -81.5t-33.5 -83t-81.5 -35zM193 1641q0 48 33.5 82t80.5 34t82 -33.5t35 -81.5t-35 -83t-82 -35t-80.5 34.5t-33.5 82.5zM393 1184v-375h133q233 0 320 2v-197q-86 4 -320 4h-133v-425h185q240 0 319 4 v-201q-80 4 -315 4h-426q12 118 9 221t-3 121v690q0 205 -6 344h422q215 0 317 6l-35 -202q-72 4 -467 4z" glyph-name="afii10023" horiz-adv-x="1015" unicode="Ё"/><glyph d="M897 1376q240 0 320 2q-4 -72 -17 -204q-188 4 -309 4h-174v-367q63 12 151 12q281 0 416 -121.5t135 -307.5t-111.5 -297t-289.5 -111q-98 0 -172 22q14 80 31 201q61 -25 100 -25q86 0 148.5 58.5t62.5 144.5q0 225 -346 225q-63 0 -125 -10v-254q0 -262 4 -348h-248 q4 188 4 360v818h-117q-223 0 -313 -4v202h850z" glyph-name="afii10051" horiz-adv-x="1529" unicode="Ђ"/><glyph d="M621 1438h-201q106 213 160 317h251q-71 -104 -210 -317zM168 348v678q0 225 -2 350h770q-25 -139 -39 -209q-80 6 -225 7h-271v-1008q1 -105 5 -166h-240q2 102 2 348z" glyph-name="afii10052" horiz-adv-x="962" unicode="Ѓ"/><glyph d="M831 180q197 0 343 90v-225q-160 -63 -361 -63q-309 0 -511 194.5t-202 499.5t207 511t516 206q182 0 351 -62v-233q-132 94 -324 94t-325.5 -106.5t-174.5 -276.5h268q188 0 320 6v-201q-176 4 -320 4h-272q16 -190 152 -314t333 -124z" glyph-name="afii10053" horiz-adv-x="1267" unicode="Є"/><glyph d="M387 1052q0 -74 52.5 -128t184.5 -136t189 -145q113 -117 113 -283t-131 -276.5t-334 -110.5t-363 80q25 106 54 215q117 -111 297 -110q102 0 165.5 49t63.5 132t-56.5 142.5t-140.5 108.5t-126 78.5t-125 107t-83 245.5q0 167 119 273.5t318 106.5q147 0 284 -58v-213 q-111 86 -276 87q-92 0 -148.5 -45.5t-56.5 -119.5z" glyph-name="afii10054" horiz-adv-x="1036" unicode="Ѕ"/><glyph d="M399 997v-647q0 -254 4 -350h-241q6 131 6 350v647q0 231 -6 379h241q-4 -64 -4 -379z" glyph-name="afii10055" horiz-adv-x="546" unicode="І"/><glyph d="M399 997v-647q0 -254 4 -350h-241q6 131 6 350v647q0 231 -6 379h241q-4 -64 -4 -379zM488 1524q-48 0 -82.5 34.5t-34.5 82.5t34.5 82t82.5 34t82 -33.5t34 -81.5t-34 -83t-82 -35zM-37 1641q0 48 35 82t82 34t82 -33.5t35 -81.5t-35 -83t-82 -35t-82 34.5t-35 82.5z " glyph-name="afii10056" horiz-adv-x="565" unicode="Ї"/><glyph d="M430 1022v-1016q0 -205 -108.5 -326.5t-301.5 -121.5q-94 0 -182 24v209q66 -37 161 -37t147.5 62.5t52.5 171.5v1034q0 260 -6 354h241q-4 -151 -4 -354z" glyph-name="afii10057" horiz-adv-x="591" unicode="Ј"/><glyph d="M1182 664v-467h118q143 0 222.5 61t79.5 179t-90.5 172.5t-229.5 54.5h-100zM958 1176h-280q-28 -256 -96 -570t-167.5 -467t-289.5 -153q-47 0 -76 12v213q23 -6 53 -6q80 0 147.5 103.5t135.5 356.5t111 711h690q-4 -143 -4 -336v-182h106q274 0 412.5 -108.5 t138.5 -314.5t-137 -320.5t-397 -114.5h-351q4 143 4 416v760z" glyph-name="afii10058" horiz-adv-x="1918" unicode="Љ"/><glyph d="M1241 653v-458h113q141 0 229 60t88 174t-95 169t-239 55h-96zM1251 846h105q248 0 394 -100.5t146 -310.5t-135 -322.5t-391 -112.5h-356q4 137 4 399v228h-645v-334q0 -211 4 -293h-240q4 160 4 305v717q0 186 -4 354h240q-4 -119 -4 -440v-123h645l2 197q0 158 -4 366 h237l-2 -362v-168z" glyph-name="afii10059" horiz-adv-x="2000" unicode="Њ"/><glyph d="M899 1194h-186v-350q125 133 302 133t273 -111.5t96 -302.5v-381q0 -113 7 -182h-236q4 88 4 295v272q0 100 -59.5 164t-159.5 64q-63 0 -125.5 -43t-101.5 -111v-319q0 -246 6 -322h-238q4 61 4 238v753q0 141 -2 203h-268q-76 0 -168 -6v188h821l299 2 q-12 -127 -16 -190q-137 6 -252 6z" glyph-name="afii10060" horiz-adv-x="1511" unicode="Ћ"/><glyph d="M709 1421h-179q37 125 115 375h225q-55 -125 -161 -375zM397 1047v-271h178q71 0 142.5 128t141 279.5t89.5 192.5h271q-47 -66 -146.5 -261t-122.5 -232q-92 -152 -174 -187q102 -49 215 -272q166 -334 234 -424h-287q-39 74 -205 420q-78 166 -145 166h-191v-183 q0 -281 2 -403h-233q2 100 2 336v702q0 236 -2 338h233q-2 -98 -2 -329z" glyph-name="afii10061" horiz-adv-x="1243" unicode="Ќ"/><glyph d="M442 1763h234q102 -137 196 -280h-192q-2 2 -104.5 123.5t-133.5 156.5zM164 289v747q0 186 -8 340h241q-8 -131 -8 -348v-596l828 963h98q-4 -129 -4 -363v-739q0 -209 4 -293h-232q6 119 7 287v674l-826 -969h-102q2 92 2 297z" glyph-name="uni040D" horiz-adv-x="1470" unicode="Ѝ"/><glyph d="M242 174q101 0 121 11.5t36.5 29.5t28.5 35.5t26.5 47.5t23.5 50.5t23.5 55t22.5 51.5q-51 115 -226 501.5t-198 440.5h267q37 -100 272 -695l262 695h250q-33 -76 -106.5 -244t-179 -410.5t-149.5 -342.5t-52.5 -119t-38 -78.5t-51 -83t-71.5 -71.5t-157 -48h-166 q33 165 35 174h27zM626 1622q62 0 102 39t40 102h180q-4 -135 -93 -222t-227 -87t-227.5 88t-91.5 221h180q2 -66 38.5 -103.5t98.5 -37.5z" glyph-name="afii10062" horiz-adv-x="1226" unicode="Ў"/><glyph d="M600 0h-430v1038q0 199 -8 338h246q-8 -172 -9 -340v-829h609v831q0 190 -7 338h242q-6 -240 -6 -338v-1038h-418v-82q0 -180 6 -305h-229l4 313v74z" glyph-name="afii10145" horiz-adv-x="1419" unicode="Џ"/><glyph d="M1329 0h-268q-6 18 -141 352h-529q-14 -37 -68.5 -169.5t-68.5 -182.5h-240q53 109 160 354l444 1041h91l471 -1084q57 -135 149 -311zM461 526h387l-195 502z" glyph-name="afii10017" unicode="А"/><glyph d="M399 653v-469h140q139 0 225 64.5t86 173.5t-84 170t-246 61h-121zM545 0h-377v1376h825q-8 -68 -24 -207q-123 10 -262 11h-308v-342h129q541 0 541 -414q0 -203 -134 -313.5t-390 -110.5z" glyph-name="afii10018" horiz-adv-x="1167" unicode="Б"/><glyph d="M555 0h-401q6 129 6 362v619q0 313 -4 395h376q186 0 306 -91t120 -247q0 -94 -51 -169.5t-133 -110.5q121 -33 197 -128t76 -222q0 -188 -136.5 -298t-355.5 -110zM811 404q0 110 -69.5 176.5t-184.5 66.5h-164v-477h148q127 0 198.5 62t71.5 172zM393 1210v-403h133 q78 0 141.5 60.5t63.5 146.5t-58.5 141t-160.5 55h-119z" glyph-name="afii10019" horiz-adv-x="1148" unicode="В"/><glyph d="M168 348v678q0 225 -2 350h770q-25 -139 -39 -209q-80 6 -225 7h-271v-1008q1 -105 5 -166h-240q2 102 2 348z" glyph-name="afii10020" horiz-adv-x="962" unicode="Г"/><glyph d="M272 0q0 -166 13 -387h-232q12 190 13 571h94q285 389 391 1194h676v-1194h149q0 -381 17 -571h-232q12 274 13 387h-902zM1001 1192h-278q-73 -635 -309 -1004l587 -4v1008z" glyph-name="afii10021" horiz-adv-x="1454" unicode="Д"/><glyph d="M391 807h170q207 0 285 4v-197q-78 4 -285 4h-170v-425h187q240 0 319 2v-197q-80 2 -315 2h-426q6 92 6 340v692q0 205 -6 344h460q184 0 279 4q-27 -145 -35 -200q-88 4 -264 4t-205 -2v-375z" glyph-name="afii10022" horiz-adv-x="1015" unicode="Е"/><glyph d="M815 387v207h-147q-43 -18 -101.5 -118.5t-138.5 -273.5t-94 -202h-281q70 94 223 416q111 238 207 286q-89 44 -172 209q-186 371 -252 465h269q12 -25 65 -139t141 -281.5t138 -179.5h143v271q0 231 -2 329h227l-2 -329v-271h170q66 16 156 202.5t131 273.5t59 124h269 q-85 -122 -179 -316t-141 -261.5t-102 -93.5q72 -41 162 -207q10 -20 109.5 -222.5t154.5 -275.5h-281q-20 39 -141.5 301t-192.5 293h-174v-207l2 -387h-227q2 117 2 387z" glyph-name="afii10024" horiz-adv-x="1898" unicode="Ж"/><glyph d="M418 784q104 0 176 56.5t72 145.5t-58.5 143.5t-156.5 54.5q-150 0 -275 -84v207q146 67 322 67t287.5 -95t111.5 -259q0 -109 -62.5 -188.5t-177.5 -120.5q129 -35 204 -124t75 -208q0 -180 -128 -288.5t-345 -108.5q-168 0 -291 47v204q106 -63 240 -63t205 65.5 t71 174.5q0 20 -6 34q-12 74 -82 119t-152 45t-118 -4v182l41 -2h47z" glyph-name="afii10025" horiz-adv-x="1101" unicode="З"/><glyph d="M164 289v747q0 186 -8 340h241q-8 -131 -8 -348v-596l828 963h98q-4 -129 -4 -363v-739q0 -209 4 -293h-232q6 119 7 287v674l-826 -969h-102q2 92 2 297z" glyph-name="afii10026" horiz-adv-x="1468" unicode="И"/><glyph d="M747 1440q-151 0 -240 87t-89 224h184q0 -66 37 -103.5t108.5 -37.5t109.5 38t38 103h186q-2 -137 -92.5 -224t-241.5 -87zM172 289v747q0 197 -10 340h241q-8 -131 -8 -348v-596l828 963h100q-6 -195 -6 -363v-739q0 -166 6 -293h-233q6 119 6 287v674l-826 -969h-102 q4 92 4 297z" glyph-name="afii10027" horiz-adv-x="1476" unicode="Й"/><glyph d="M389 1047v-271h178q71 0 142.5 128t141 279.5t89.5 192.5h270q-47 -66 -146 -261t-122 -232q-92 -152 -174 -187q102 -49 215 -272q166 -334 234 -424h-287q-39 74 -205 420q-78 166 -145 166h-191v-183q0 -281 2 -403h-233q2 100 2 336v702q0 236 -2 338h233 q-2 -98 -2 -329z" glyph-name="afii10028" horiz-adv-x="1234" unicode="К"/><glyph d="M973 434v758h-316q-33 -332 -101 -626t-172 -436t-280 -142q-47 0 -69 10v209q29 -4 53 -4q78 0 193 178t194 995h723v-1030l4 -346h-233q4 150 4 434z" glyph-name="afii10029" horiz-adv-x="1368" unicode="Л"/><glyph d="M1335 0q0 123 -10 301l-33 643q-311 -571 -415 -768h-60l-422 768l-41 -637q-4 -70 -7 -176t-5 -131h-240q4 53 14.5 170t14.5 180l72 1034h166l481 -880l477 880h164l59 -1056q8 -182 25 -328h-240z" glyph-name="afii10030" horiz-adv-x="1677" unicode="М"/><glyph d="M391 815h668v223q0 211 -6 338h239q-6 -190 -6 -354v-786q0 -27 6 -236h-239q6 111 6 295v332h-668v-332q0 -211 6 -295h-239q4 160 4 305v717q0 190 -4 354h239q-6 -117 -6 -440v-121z" glyph-name="afii10031" horiz-adv-x="1449" unicode="Н"/><glyph d="M807 -25q-303 0 -507 204t-204 508t204 507t506 203t507 -205t205 -507t-204 -506t-507 -204zM807 168q205 0 338 148.5t133 369.5t-134 369.5t-337 148.5t-338 -146.5t-135 -370.5t134 -371.5t339 -147.5z" glyph-name="afii10032" horiz-adv-x="1613" unicode="О"/><glyph d="M1245 1376v-1040q0 -250 6 -336h-243q6 270 6 338v840h-613v-840q0 -246 5 -338h-244q8 193 8 340v1036h1075z" glyph-name="afii10033" horiz-adv-x="1417" unicode="П"/><glyph d="M393 502v-154q0 -217 6 -348h-243q6 127 6 360v701q0 205 -6 315h358q231 0 364.5 -118.5t133.5 -317.5t-132 -318.5t-372 -119.5h-115zM393 1196v-516h105q123 0 199.5 71.5t76.5 187.5t-74.5 186.5t-201.5 70.5h-105z" glyph-name="afii10034" horiz-adv-x="1097" unicode="Р"/><glyph d="M821 176q205 0 346 90v-229q-156 -59 -360 -60q-309 0 -510 200t-201 504t206 511t515 207q166 0 346 -62v-235q-131 94 -339 94t-349 -147.5t-141 -363.5t141 -362.5t346 -146.5z" glyph-name="afii10035" horiz-adv-x="1273" unicode="С"/><glyph d="M825 1182h-112q-2 -119 -2 -387v-441q0 -236 6 -354h-244q6 139 6 354v629q0 80 -4 199h-115q-184 0 -319 -6v200h790q254 0 330 2q-5 -43 -16 -202q-139 6 -320 6z" glyph-name="afii10036" horiz-adv-x="1202" unicode="Т"/><glyph d="M309 -10q-76 0 -137 6v203q53 -4 74 -4q104 0 148 38.5t106 165.5q-414 872 -471 977h278q20 -82 167 -398t149 -323q6 16 112.5 264t169.5 457h266q-8 -18 -213.5 -478t-244.5 -558q-84 -190 -178.5 -270t-225.5 -80z" glyph-name="afii10037" horiz-adv-x="1196" unicode="У"/><glyph d="M104 678q0 244 154 395.5t416 173.5q0 96 -6 156h247q-6 -98 -6 -156q266 -29 417 -177t151 -392t-151.5 -388.5t-416.5 -168.5q0 -101 4 -160h-245q6 70 6 160q-270 27 -420 170t-150 387zM348 681q0 -159 83 -259.5t243 -118.5v762q-160 -20 -243 -122.5t-83 -261.5z M1233 682q0 158 -84 260.5t-240 122.5v-762q156 18 240 119.5t84 259.5z" glyph-name="afii10038" horiz-adv-x="1585" unicode="Ф"/><glyph d="M614 879l304 497h260q-72 -94 -156 -222t-289 -447q330 -532 461 -707h-276q-12 20 -74 122t-244 392q-148 -242 -198 -320t-79.5 -130t-37.5 -64h-265q88 113 146 200t176.5 272t140.5 218q-157 255 -444 686h278q63 -117 153 -260t144 -237z" glyph-name="afii10039" horiz-adv-x="1214" unicode="Х"/><glyph d="M1176 0h-1006v1038q0 182 -6 338h244q-6 -233 -7 -293v-886h607v841q0 240 -4 338h241q-4 -160 -4 -338v-845h152v-242q0 -233 4 -338h-226l5 313v74z" glyph-name="afii10040" horiz-adv-x="1466" unicode="Ц"/><glyph d="M373 1055q0 -199 75.5 -307.5t411.5 -26.5v356q0 168 -6 299h240q-4 -164 -4 -299v-837q0 -18 8 -240h-244q6 246 6 293v223q-127 -29 -225 -29q-236 0 -351.5 105.5t-129.5 325.5q-4 76 -7.5 234.5t-9.5 223.5h242q-6 -122 -6 -321z" glyph-name="afii10041" horiz-adv-x="1275" unicode="Ч"/><glyph d="M1743 1036v-1036h-1569v1036q0 236 -6 340h238q-8 -168 -9 -340v-829h449v829q0 193 -6 340h235q-8 -106 -8 -340v-829h453v831q0 174 -11 338h236q-2 -80 -2 -340z" glyph-name="afii10042" horiz-adv-x="1927" unicode="Ш"/><glyph d="M1686 0h-1512v1040q0 231 -6 336h238q-8 -172 -9 -338v-831h449v831q0 190 -6 338h233q-6 -119 -6 -338v-831h451v833q0 139 -9 336h236q-4 -160 -4 -336v-837h162v-252q0 -233 6 -338h-228q4 184 5 313v74z" glyph-name="afii10043" horiz-adv-x="1976" unicode="Щ"/><glyph d="M467 1188h-258q-96 0 -162 -10q-18 123 -33 200q92 -2 308 -2h389v-530h102q248 0 395.5 -100.5t147.5 -310.5t-135.5 -322.5t-391.5 -112.5h-364l2 397v791zM711 653v-458h114q139 0 217 59t78 168q0 231 -313 231h-96z" glyph-name="afii10044" horiz-adv-x="1454" unicode="Ъ"/><glyph d="M401 653v-458h117q139 0 217 59t78 174t-89 170t-224 55h-99zM1450 997v-649q0 -252 6 -348h-239q4 176 4 350v647q0 178 -4 379h239q-6 -94 -6 -379zM401 846h107q244 0 392.5 -101.5t148.5 -310.5t-135.5 -321.5t-391.5 -112.5h-356l6 1010q0 287 -6 366h242 q-6 -92 -7 -366v-164z" glyph-name="afii10045" horiz-adv-x="1626" unicode="Ы"/><glyph d="M408 653v-458h114q139 0 218 60t79 174t-89 169t-224 55h-98zM408 1010v-164h104q244 0 392.5 -101.5t148.5 -310.5t-135.5 -321.5t-391.5 -112.5h-354l4 1010q0 252 -4 366h240q-4 -123 -4 -366z" glyph-name="afii10046" horiz-adv-x="1167" unicode="Ь"/><glyph d="M438 180q197 0 333 124t153 314h-273q-147 0 -319 -4v201q129 -6 319 -6h269q-41 170 -174.5 276.5t-325.5 106.5t-324 -94v233q166 61 350 62q309 0 515 -205t206 -511t-200.5 -500.5t-509.5 -194.5q-203 0 -363 63v225q147 -90 344 -90z" glyph-name="afii10047" horiz-adv-x="1247" unicode="Э"/><glyph d="M1312 182q181 0 289.5 136.5t108.5 355.5t-110.5 367.5t-288.5 148.5t-289 -146.5t-111 -367.5t110 -357.5t291 -136.5zM420 1010v-203h262q37 258 210 423t434 165t441.5 -209t180.5 -514t-179.5 -500t-447.5 -195t-444.5 178.5t-198.5 454.5h-258v-295q0 -221 6 -315 h-240q4 172 4 317v693q0 174 -4 366h240q-6 -90 -6 -366z" glyph-name="afii10048" horiz-adv-x="2054" unicode="Ю"/><glyph d="M868 719v473h-120q-113 0 -187 -62.5t-74 -174.5t76 -174t182 -62h123zM868 362v187h-159l-338 -549h-303q164 197 254 332l188 282q-258 84 -258 357q0 197 136 301t349 104h369q-6 -74 -6 -336v-675q0 -281 6 -365h-244q6 126 6 362z" glyph-name="afii10049" horiz-adv-x="1263" unicode="Я"/><glyph d="M481 981q213 0 303 -108.5t90 -337.5v-224q0 -199 39 -311h-215q-8 70 -12 106q-115 -127 -301 -126q-137 0 -225 82.5t-88 216.5q0 86 37.5 148t131 117.5t429.5 55.5v31q0 82 -63.5 132t-151.5 50q-131 0 -254 -82l-74 158q141 92 354 92zM281 283q0 -63 45 -104.5 t105 -41.5t129 31t112 76v202l-166 -6q-225 -6 -225 -157z" glyph-name="afii10065" horiz-adv-x="989" unicode="а"/><glyph d="M546 -16q-218 0 -339 165.5t-121 464.5q0 397 184 586q51 51 176.5 112t477.5 144v-213q-203 -35 -401 -101t-234 -313q45 43 129 72t178 29q197 0 307.5 -129t110.5 -341t-125 -344t-343 -132zM552 156q110 0 186.5 90t76.5 219t-67.5 210t-195.5 81t-235 -92 q-10 -29 -10 -119q0 -176 67.5 -282.5t177.5 -106.5z" glyph-name="afii10066" horiz-adv-x="1097" unicode="б"/><glyph d="M535 0h-404q2 76 2 242v438q0 109 -4 281h297q430 0 430 -259q0 -70 -42 -124t-114 -76q109 -20 168.5 -78.5t59.5 -142.5q0 -125 -98 -203t-295 -78zM348 412v-262h180q176 0 177 137q0 59 -47.5 92t-122.5 33h-187zM348 809v-256h123q35 0 55 14q111 12 111 111 q0 61 -44 96t-132 35h-113z" glyph-name="afii10067" horiz-adv-x="1009" unicode="в"/><glyph d="M133 344v277l-2 340h473q156 0 205 2q-8 -47 -37 -211l-223 2h-176v-408l2 -346h-244q2 100 2 344z" glyph-name="afii10068" horiz-adv-x="845" unicode="г"/><glyph d="M39 -215v377h76q123 133 187.5 317.5t105.5 481.5h577v-799h125v-377q0 -37 4 -143h-196q2 45 2 131v225h-691q0 -254 4 -356h-198q4 106 4 143zM774 162v614h-215q-51 -399 -213 -614h428z" glyph-name="afii10069" horiz-adv-x="1175" unicode="д"/><glyph d="M965 568q0 -56 -7 -124h-682q8 -137 89 -210.5t226 -73.5t318 96v-176q-152 -96 -336 -96q-229 0 -367 134t-138 357t120.5 365.5t337.5 142.5q115 0 203 -39t137 -104.5t74 -140.5t25 -131zM527 807q-114 0 -179 -71.5t-76 -155.5h492q-2 102 -62.5 164.5t-174.5 62.5z " glyph-name="afii10070" horiz-adv-x="1024" unicode="е"/><glyph d="M606 254v156h-69q-51 0 -230 -373q-12 -25 -18 -37h-254q53 64 127 205t76 143q66 109 129 135q-53 18 -131 144q-2 4 -76 140t-115 194h244q32 -78 117 -244t131 -166h69v410h228q-2 -68 -3 -242v-168h70q61 0 252 410h240q-64 -96 -115 -197.5t-66.5 -129.5t-22.5 -40 t-18.5 -30.5t-34 -42.5t-63.5 -38q49 -16 93 -84.5t109.5 -191.5t127.5 -207h-254q-186 410 -246 410h-69v-156q0 -184 2 -254h-232q2 82 2 254z" glyph-name="afii10072" horiz-adv-x="1470" unicode="ж"/><glyph d="M425 -18q-171 0 -316 57v186q125 -68 278 -67q195 0 195 131q0 121 -220 121q-84 0 -118 -7v170q23 -2 127 -2q184 0 184 118t-166 118q-125 0 -244 -57l-32 172q131 63 302 63t271 -74.5t100 -199.5q0 -72 -45 -128.5t-120 -78.5q92 -23 142 -81t50 -147 q0 -129 -108.5 -211.5t-279.5 -82.5z" glyph-name="afii10073" horiz-adv-x="899" unicode="з"/><glyph d="M1012 643v-412q0 -168 4 -231h-209q4 72 4 256v346q-47 -47 -284 -297t-298 -309h-116q4 168 4 258v440q0 135 -11 264h216q-8 -113 -9 -313v-299q581 606 598 623h105q-4 -106 -4 -326z" glyph-name="afii10074" horiz-adv-x="1126" unicode="и"/><glyph d="M579 1087q-138 0 -227.5 89.5t-91.5 222.5h180q2 -68 39 -106t99 -38t101.5 40t39.5 104h180q-4 -135 -93 -223.5t-227 -88.5zM1012 643v-412q0 -168 4 -231h-209q4 72 4 256v346q-47 -47 -284 -297t-298 -309h-116q4 168 4 258v440q0 135 -11 264h216q-8 -113 -9 -313 v-299q581 606 598 623h105q-4 -106 -4 -326z" glyph-name="afii10075" horiz-adv-x="1126" unicode="й"/><glyph d="M362 961v-410h68q51 0 248 371q14 27 20 39h242q-45 -63 -121 -205t-115.5 -194t-95.5 -68q70 -25 133 -129q8 -12 80 -150t133 -215h-262q-10 18 -58.5 110.5t-110 196t-93.5 103.5h-68v-410h-231q2 70 2 238v485l-2 238h231z" glyph-name="afii10076" horiz-adv-x="1017" unicode="к"/><glyph d="M983 608v-362q0 -99 8 -246h-233q12 76 12 283v495h-211q-49 -387 -170 -590.5t-289 -203.5l-65 8v207q14 -8 39 -9q113 0 193.5 219.5t119.5 551.5h600q-4 -117 -4 -353z" glyph-name="afii10077" horiz-adv-x="1112" unicode="л"/><glyph d="M1124 961q0 -641 13 -961h-203q0 55 -2 265t-2 362q-152 -219 -266 -391h-80q-90 136 -159.5 243t-98.5 150q-4 -324 -4 -490l2 -139h-218q14 262 15 881l-2 80h198q104 -160 310 -480q212 347 299 480h198z" glyph-name="afii10078" horiz-adv-x="1257" unicode="м"/><glyph d="M981 236q0 -88 4 -236h-223q4 139 4 240v172h-420v-170q0 -166 4 -242h-221q4 119 4 215v569q0 33 -4 177h221q-4 -63 -4 -175v-202h420v198q0 35 -4 179h223l-4 -177v-548z" glyph-name="afii10079" horiz-adv-x="1114" unicode="н"/><glyph d="M76 480q0 208 142 353.5t344 145.5t342 -145.5t140 -354.5t-140 -351t-344 -142t-344 143t-140 351zM559 786q-115 0 -188.5 -95t-73.5 -218t74.5 -211t190.5 -88t189.5 88t73.5 219t-75.5 218t-190.5 87z" glyph-name="afii10080" horiz-adv-x="1120" unicode="о"/><glyph d="M973 961v-748q0 -123 6 -213h-231q4 193 4 303v461h-400v-463q0 -199 6 -301h-233q6 258 6 303v658h842z" glyph-name="afii10081" horiz-adv-x="1110" unicode="п"/><glyph d="M350 -457h-219v1360q195 82 411 82t351 -134.5t135 -356.5t-137 -367t-350 -145q-102 0 -191 36v-475zM516 168q133 0 218 90t85 229.5t-87 226.5t-220 87q-76 0 -162 -27v-567q84 -39 166 -39z" glyph-name="afii10082" horiz-adv-x="1114" unicode="р"/><glyph d="M563 -16q-217 0 -353 137t-136 354t144 362.5t362 145.5q119 0 229 -47v-213q-119 72 -229 72t-202.5 -92.5t-92.5 -224.5t87 -221t208 -89t221 70q20 -102 35 -189q-113 -65 -273 -65z" glyph-name="afii10083" horiz-adv-x="894" unicode="с"/><glyph d="M274 961h506q90 0 142 2q-4 -66 -17 -197q-156 4 -192 4h-113v-514q0 -199 4 -256h-237q4 72 4 256v514h-92q-156 0 -230 -4v197q66 -2 225 -2z" glyph-name="afii10084" horiz-adv-x="952" unicode="т"/><glyph d="M248 -397h-162l33 172q94 0 125 8q63 0 178 262q-197 442 -412 916h262q72 -193 263 -672q188 473 249 672h246q-356 -838 -407 -949l-74 -159q-115 -250 -301 -250z" glyph-name="afii10085" horiz-adv-x="1044" unicode="у"/><glyph d="M1282 483q0 -211 -136 -346t-368 -153q13 -433 13 -439h-224l11 439q-236 16 -370 152t-134 346t134 345.5t370 153.5l-11 416h224q-10 -256 -13 -416q231 -18 367.5 -152.5t136.5 -345.5zM289 482q0 -122 83 -209t206 -97v610q-125 -12 -207 -97t-82 -207zM1059 483 q0 121 -79 207t-202 96v-610q121 10 201 98t80 209z" glyph-name="afii10086" horiz-adv-x="1359" unicode="ф"/><glyph d="M938 961q-83 -104 -324 -476q231 -362 322 -485h-244q-143 217 -213 326q-150 -225 -211 -326h-245q68 86 333 479q-225 346 -323 482h256q47 -82 205 -326q104 167 204 326h240z" glyph-name="afii10087" horiz-adv-x="960" unicode="х"/><glyph d="M127 0v659q0 160 -6 302h237q-8 -193 -8 -304v-467h383v469q0 197 -4 302h236q-4 -152 -4 -299v-480h126l3 -223q0 -199 4 -309h-220l5 350h-752z" glyph-name="afii10088" horiz-adv-x="1150" unicode="ц"/><glyph d="M485 311q-184 0 -284.5 81t-100.5 233v155q0 127 -2 181h226l-11 -191v-108q0 -160 207 -160q119 0 185 43v241q0 98 -7 175h222q-2 -59 -2 -197v-623l6 -141h-226q7 119 7 342q-92 -31 -220 -31z" glyph-name="afii10089" horiz-adv-x="1050" unicode="ч"/><glyph d="M1401 662v-662h-1280v743q0 145 -2 218h229q-4 -193 -4 -304v-460h297v544q0 137 -2 220h231q-8 -152 -8 -302v-462h318v462q0 152 -9 302h234q-4 -76 -4 -299z" glyph-name="afii10090" horiz-adv-x="1529" unicode="ш"/><glyph d="M1401 186h106v-284q0 -186 4 -256h-219q6 74 6 354h-1175v662q0 207 -4 301h231q-6 -143 -6 -304v-462h299v462q0 197 -2 302h229q-6 -227 -6 -299v-465h318v465q0 145 -6 301h229q-4 -152 -4 -301v-476z" glyph-name="afii10091" horiz-adv-x="1576" unicode="щ"/><glyph d="M748 0h-338q2 68 2 242v549h-148q-47 0 -166 -5q-12 57 -28 177q111 -2 333 -2h222v-326h120q176 0 291 -78t115 -233t-102 -239.5t-301 -84.5zM625 467v-299h102q98 0 155.5 39t57.5 112q0 147 -229 148h-86z" glyph-name="afii10092" horiz-adv-x="1239" unicode="ъ"/><glyph d="M143 604v117q0 104 -4 240h217q-6 -160 -6 -326h119q184 0 298 -74t114 -233t-102.5 -243.5t-299.5 -84.5h-338q2 156 2 604zM350 467v-299h90q104 0 168 38t64 113q0 147 -242 148h-80zM1237 647v-485q0 -59 4 -162h-233q4 127 4 221v545q0 129 -6 195h235 q-4 -111 -4 -314z" glyph-name="afii10093" horiz-adv-x="1376" unicode="ы"/><glyph d="M143 604v117q0 104 -4 240h217q-6 -160 -6 -326h119q184 0 298 -74t114 -233t-102.5 -243.5t-299.5 -84.5h-338q2 156 2 604zM350 467v-299h90q217 0 217 151q0 86 -61 117t-166 31h-80z" glyph-name="afii10094" horiz-adv-x="972" unicode="ь"/><glyph d="M350 154q141 0 228.5 70.5t101.5 191.5h-420v162q35 -2 146 -3h268q-27 100 -112.5 162t-227.5 62t-254 -86v200q137 61 289 62q231 0 378.5 -141.5t147.5 -357.5t-148.5 -354t-377.5 -138q-182 0 -293 63v197q41 -35 116.5 -62.5t157.5 -27.5z" glyph-name="afii10095" horiz-adv-x="946" unicode="э"/><glyph d="M1227 481q0 137 -61.5 221t-166 84t-167 -84t-62.5 -220t62.5 -221t167 -85t166 84t61.5 221zM365 395v-186q0 -70 4 -209h-238q4 82 4 211v545q0 135 -4 205h238q-4 -86 -4 -209v-172h194q29 184 147 293.5t306 109.5t315 -147.5t127 -352.5t-127 -352t-317 -147 t-307 113.5t-144 297.5h-194z" glyph-name="afii10096" horiz-adv-x="1531" unicode="ю"/><glyph d="M129 659q0 137 97.5 219.5t287.5 82.5h381q-2 -72 -2 -259v-501q0 -147 4 -201h-227q10 98 10 188v158h-166q-39 -68 -203 -346h-286q95 100 161 196t146 187q-88 31 -145.5 107.5t-57.5 168.5zM336 650q0 -60 52 -97t124 -37h168v283h-160q-76 0 -130 -44.5t-54 -104.5z " glyph-name="afii10097" horiz-adv-x="1026" unicode="я"/><glyph d="M219 1397h232l184 -314h-195zM963 552q0 -66 -9 -112h-682q8 -137 89 -210.5t226 -73.5t320 96v-174q-145 -96 -336 -96q-231 0 -368 134t-137 356t120.5 364.5t335.5 142.5q115 0 203 -39t138 -105.5t75 -141.5t25 -141zM524 803q-113 0 -177 -72t-77 -153h492 q-4 100 -64.5 162.5t-173.5 62.5z" glyph-name="uni0450" horiz-adv-x="1028" unicode="ѐ"/><glyph d="M967 576q0 -88 -6 -123h-685q8 -141 89 -215t227 -74t321 94v-176q-158 -98 -338 -98q-231 0 -369 136t-138 364t121.5 371.5t338.5 143.5q152 0 254.5 -70.5t143.5 -167.5t41 -185zM528 821q-115 0 -179 -73.5t-75 -157.5h492q-4 104 -63.5 167.5t-174.5 63.5zM719 1124 q-47 0 -83 35t-36 82t36 81t83 34t81 -34t34 -81t-34 -82t-81 -35zM193 1241q0 47 34.5 81t81.5 34t83 -34t36 -81t-36 -82t-83 -35t-81.5 35t-34.5 82z" glyph-name="afii10071" horiz-adv-x="1024" unicode="ё"/><glyph d="M147 238v878q-78 0 -114 -4v166q98 -4 114 -4q0 94 -12 174h252q-10 -63 -10 -174h117q72 0 186 4v-166q-61 4 -201 4h-102v-272q137 131 298 131t255 -144.5t94 -401.5t-104.5 -453.5t-280.5 -294.5q-125 147 -133 157q299 193 299 602q0 164 -51.5 252t-149.5 88 t-227 -131v-397q0 -141 4 -252h-242q8 82 8 238z" glyph-name="afii10099" horiz-adv-x="1128" unicode="ђ"/><glyph d="M463 770h-107v-399q1 -244 9 -371h-244q8 131 8 375v246l-4 340h410q199 0 270 2l-37 -201q-184 8 -305 8zM346 1083q123 209 186 314h230q-209 -293 -223 -314h-193z" glyph-name="afii10100" horiz-adv-x="843" unicode="ѓ"/><glyph d="M567 -16q-229 0 -376.5 138t-147.5 354t147.5 357.5t376.5 141.5q154 0 291 -62v-200q-117 86 -274 86q-111 0 -203 -63.5t-119 -160.5h266q113 0 148 3v-162h-420q14 -121 101 -191.5t229 -70.5q82 0 157.5 27.5t116.5 62.5v-197q-106 -63 -293 -63z" glyph-name="afii10101" horiz-adv-x="950" unicode="є"/><glyph d="M326 713q0 -41 42 -74t101 -61.5t119.5 -63.5t102.5 -100.5t42 -153.5q0 -133 -97 -208t-270 -75t-290 66q18 102 39 193q117 -94 245 -95q68 0 112 34t44 77t-42 78t-102.5 64.5t-119.5 67.5t-101 101.5t-42 145.5q0 123 92 196.5t254 73.5q106 0 241 -45v-191 q-117 72 -231 72q-47 0 -93 -30.5t-46 -71.5z" glyph-name="afii10102" horiz-adv-x="821" unicode="ѕ"/><glyph d="M145 207v543q0 168 -8 211h238q-6 -74 -6 -207v-547q0 -141 6 -207h-236q6 74 6 207zM137 1253.5q0 53.5 38 91t91 37.5t91 -37.5t38 -91t-38 -90.5t-91 -37t-91 37t-38 90.5z" glyph-name="afii10103" horiz-adv-x="460" unicode="і"/><glyph d="M145 207v543q0 139 -8 211h238q-6 -74 -6 -207v-547q0 -141 6 -207h-236q6 74 6 207zM469 1124q-47 0 -83 35t-36 82t36 81t83 34t81 -34t34 -81t-34 -82t-81 -35zM-57 1241q0 47 34.5 81t81.5 34t82 -34t35 -81t-35 -82t-82 -35t-81.5 35t-34.5 82z" glyph-name="afii10104" horiz-adv-x="526" unicode="ї"/><glyph d="M137 1253.5q0 53.5 37 91t91 37.5t92 -37.5t38 -91t-38 -91.5t-92 -38t-91 38t-37 91.5zM375 750v-644q0 -299 -73 -440t-271 -141h-160v182h123q160 0 160 262v779q0 147 -9 213h236q-6 -72 -6 -211z" glyph-name="afii10105" horiz-adv-x="526" unicode="ј"/><glyph d="M956 164h99q100 0 158.5 41t58.5 110.5t-57.5 109.5t-142.5 40t-116 -4v-297zM1067 635q205 0 313.5 -81.5t108.5 -231.5t-104.5 -236t-311.5 -86h-344q2 129 2 393v385h-172q-51 -375 -160.5 -584.5t-277.5 -209.5l-74 8v207q16 -10 41 -11q94 0 176 223.5t119 549.5 h573l-2 -164v-19l2 -147q78 4 111 4z" glyph-name="afii10106" horiz-adv-x="1572" unicode="љ"/><glyph d="M967 172h96q109 0 168 38t59 105.5t-62.5 104.5t-172.5 37q-31 0 -88 -4v-281zM756 412h-391v-211q0 -143 4 -201h-230q4 102 4 205v512q0 113 -4 244h230q-4 -106 -4 -244v-131h393v131q0 113 -4 244h217q-4 -86 -4 -263v-67q70 4 108 4q209 0 316.5 -81.5t107.5 -231.5 t-104.5 -236t-313.5 -86h-325v412z" glyph-name="afii10107" horiz-adv-x="1570" unicode="њ"/><glyph d="M369 1260v-429q127 145 311 145t278.5 -114t94.5 -319v-361q0 -113 6 -182h-238q6 109 6 305v223q0 266 -219 267q-70 0 -137.5 -50.5t-101.5 -128.5v-438q0 -43 6 -178h-236q6 80 6 209v1132h-88q34 85 56 125h264q-8 -66 -8 -206zM27 1112v166h653v-166h-653z" glyph-name="afii10108" horiz-adv-x="1142" unicode="ћ"/><glyph d="M274 961v-410h68q51 0 248 371q14 27 20 39h242q-45 -63 -121 -205t-116 -194t-95 -68q70 -25 133 -129q8 -12 81.5 -153t131.5 -212h-262q-10 18 -60 113.5t-110.5 196t-91.5 100.5h-68v-410h-231q2 70 2 238v485l-2 238h231zM330 1083l186 314h229q-209 -293 -223 -314 h-192z" glyph-name="afii10109" horiz-adv-x="882" unicode="ќ"/><glyph d="M356 788v-454q147 188 504 631h152q-2 -102 -2 -324v-485q0 -115 2 -156h-228l2 78q4 78 5 117v405q-324 -393 -494 -604h-164l2 205v544l-2 216h227q-4 -45 -4 -173zM283 1397h229q27 -43 186 -316h-194q-51 74 -221 316z" glyph-name="uni045D" horiz-adv-x="1118" unicode="ѝ"/><glyph d="M86 -397l33 172q94 0 125 8q48 4 83.5 66.5t61 120t33.5 75.5q-197 442 -412 916h262q72 -193 263 -672q188 473 249 672h246q-312 -737 -402 -935t-114 -225q-111 -199 -266 -198h-162zM546 1255q62 0 102 40t40 104h180q-4 -135 -93 -222t-227 -87t-227.5 88t-91.5 221 h181q2 -66 38 -105t98 -39z" glyph-name="afii10110" horiz-adv-x="1069" unicode="ў"/><glyph d="M975 0h-293v-78q0 -211 6 -309h-244q4 176 5 309v78h-316v709q0 127 -6 252h242q-6 -147 -7 -252v-502h383v502q0 68 -4 252h240q-6 -117 -6 -250v-711z" glyph-name="afii10193" horiz-adv-x="1122" unicode="џ"/><glyph d="M756 1483l-221 313h227q22 -38 92 -152t96 -161h-194zM1905 1376l-492 -1380h-162q-98 279 -295 840q-274 -766 -301 -840h-159q-37 104 -244 672.5t-256 707.5h242q57 -168 170.5 -504.5t171.5 -504.5q10 10 32 43q9 24 102 301.5t134 396.5q-66 180 -103 268h244 q102 -303 328 -950q6 -10 18.5 -29.5t18.5 -29.5q131 408 319 1009h232z" glyph-name="Wgrave" horiz-adv-x="1918" unicode="Ẁ"/><glyph d="M633 1083l-223 314h231q16 -31 92 -155t94 -159h-194zM319 770l152 -422l215 613h109q14 -39 103 -281t122 -338l151 467q39 125 48 152h229q-70 -160 -96 -236l-273 -741h-90l-256 665l-250 -665h-96l-287 749q-20 53 -28 72l-62 156h250q36 -128 59 -191z" glyph-name="wgrave" horiz-adv-x="1456" unicode="ẁ"/><glyph d="M776 1483q123 209 187 313h229q-76 -104 -223 -313h-193zM1905 1376l-492 -1380h-162q-98 279 -295 840q-274 -766 -301 -840h-159q-37 104 -244 672.5t-256 707.5h242q57 -168 170.5 -504.5t171.5 -504.5q10 10 32 43q9 24 102 301.5t134 396.5q-66 180 -103 268h244 q102 -303 328 -950q6 -10 18.5 -29.5t18.5 -29.5q131 408 319 1009h232z" glyph-name="Wacute" horiz-adv-x="1918" unicode="Ẃ"/><glyph d="M1069 1397l-223 -314h-193l185 314h231zM319 770l152 -422l215 613h109q14 -39 103 -281t122 -338l151 467q39 125 48 152h229q-70 -160 -96 -236l-273 -741h-90l-256 665l-250 -665h-96l-287 749q-20 53 -28 72l-62 156h250q36 -128 59 -191z" glyph-name="wacute" horiz-adv-x="1456" unicode="ẃ"/><glyph d="M1165 1524q-47 0 -81.5 34.5t-34.5 82t34.5 82t81.5 34.5t81 -34.5t34 -82t-34 -82t-81 -34.5zM639 1640.5q0 47.5 35 82t82 34.5t82.5 -34.5t35.5 -82t-35.5 -82t-82.5 -34.5t-82 34.5t-35 82zM1905 1376l-492 -1380h-162q-98 279 -295 840q-274 -766 -301 -840h-159 q-37 104 -244 672.5t-256 707.5h242q57 -168 170.5 -504.5t171.5 -504.5q10 10 32 43q9 24 102 301.5t134 396.5q-66 180 -103 268h244q102 -303 328 -950q6 -10 18.5 -29.5t18.5 -29.5q131 408 319 1009h232z" glyph-name="Wdieresis" horiz-adv-x="1918" unicode="Ẅ"/><glyph d="M942 1124q-47 0 -83 35t-36 82t36 81t83 34t81 -34t34 -81t-34 -82t-81 -35zM416 1241q0 47 34.5 81t82 34t83 -34t35.5 -81t-35.5 -82t-83 -35t-82 35t-34.5 82zM319 770l152 -422l215 613h109q14 -39 103 -281t122 -338l151 467q39 125 48 152h229q-70 -160 -96 -236 l-273 -741h-90l-256 665l-250 -665h-96l-287 749q-20 53 -28 72l-62 156h250q36 -128 59 -191z" glyph-name="wdieresis" horiz-adv-x="1456" unicode="ẅ"/><glyph d="M506 322v274q-53 86 -160.5 259t-163.5 266t-166 255h275q27 -57 122 -215t216 -364q64 109 162 272q98 164 176 307h258q-16 -29 -63.5 -99.5t-110.5 -174.5t-316 -506v-274q0 -187 6 -322h-239q4 197 4 322zM727 1483h-190q-119 161 -226 315h232q16 -35 92 -157.5 t92 -157.5z" glyph-name="Ygrave" horiz-adv-x="1241" unicode="Ỳ"/><glyph d="M430 1083q-123 175 -223 314h229q25 -43 89.5 -149.5t97.5 -164.5h-193zM86 -397l33 172q94 0 125 8q48 4 83.5 66.5t61 120t33.5 75.5q-197 442 -412 916h262q72 -193 263 -672q188 473 249 672h246q-312 -737 -402 -935t-114 -225q-111 -199 -266 -198h-162z" glyph-name="ygrave" horiz-adv-x="1044" unicode="ỳ"/><glyph d="M31 408v180h940v-180h-940z" glyph-name="endash" horiz-adv-x="999" unicode="–"/><glyph d="M-8 408v180h1921v-180h-1921z" glyph-name="emdash" horiz-adv-x="1904" unicode="—"/><glyph d="M10 408v180h1759v-180h-1759z" glyph-name="afii00208" horiz-adv-x="1826" unicode="―"/><glyph d="M324 1158q0 -124 22 -222l-207 -41q-23 90 -22 195q0 184 116 389q14 0 74 -17.5t72 -17.5q-55 -162 -55 -286z" glyph-name="quoteleft" horiz-adv-x="485" unicode="‘"/><glyph d="M162 1203q0 128 -23 227l205 40q25 -102 25 -174q0 -193 -119 -411l-144 35q56 155 56 283z" glyph-name="quoteright" horiz-adv-x="485" unicode="’"/><glyph d="M184 102q0 78 -14 148q68 10 225 41q14 -57 15 -133q-1 -257 -185 -480l-137 64q96 182 96 360z" glyph-name="quotesinglbase" horiz-adv-x="485" unicode="‚"/><glyph d="M709 1051q0 -78 14 -148q-68 -10 -225 -41q-14 57 -15 133q1 257 185 480l137 -64q-96 -182 -96 -360zM129 995q0 257 184 480l138 -64q-96 -182 -97 -360q0 -78 15 -148q-68 -10 -226 -41q-14 57 -14 133z" glyph-name="quotedblleft" horiz-adv-x="862" unicode="“"/><glyph d="M184 1292q0 78 -14 148q68 10 225 41q14 -57 15 -133q-1 -257 -185 -480l-137 64q96 182 96 360zM764 1348q0 -257 -184 -480l-138 64q96 182 97 360q0 78 -15 148q68 10 226 41q14 -57 14 -133z" glyph-name="quotedblright" horiz-adv-x="862" unicode="”"/><glyph d="M184 102q0 78 -14 148q68 10 225 41q14 -57 15 -133q-1 -257 -185 -480l-137 64q96 182 96 360zM764 158q0 -257 -184 -480l-138 64q96 182 97 360q0 78 -15 148q68 10 226 41q14 -57 14 -133z" glyph-name="quotedblbase" horiz-adv-x="862" unicode="„"/><glyph d="M350 872q-127 0 -270 -14v174q147 -12 268 -12q0 104 -12 301h190q-12 -209 -12 -301q129 0 270 12v-174q-133 14 -270 14v-49l8 -444v-131q0 -104 2 -146h-184q2 41 2 146v139l8 438v47z" glyph-name="dagger" horiz-adv-x="866" unicode="†"/><glyph d="M358 719l7 170q-127 0 -267 -12v176q111 -12 267 -13q-8 207 -11 281h189q-8 -193 -11 -281q131 0 265 11v-174q-180 12 -265 12l5 -174l-5 -178q111 0 265 10v-174q-180 12 -265 12q6 -137 11 -283h-189q6 221 11 283q-90 0 -267 -12v174l267 -10q-6 123 -7 182z" glyph-name="daggerdbl" horiz-adv-x="899" unicode="‡"/><glyph d="M392 307q-99 0 -168.5 71t-69.5 171t69.5 172t168.5 72t170 -72t71 -172t-71 -171t-170 -71z" glyph-name="bullet" horiz-adv-x="788" unicode="•"/><glyph d="M188 124q0 60 44 105t103.5 45t102.5 -43t43 -103t-44 -104.5t-103 -45.5t-102.5 42.5t-43.5 103.5zM1481 124q0 62 44 106t103.5 44t102.5 -43t43 -103t-43.5 -104.5t-103.5 -45.5t-103 41.5t-43 104.5zM831 124q0 60 45.5 105t104.5 45t101 -43t42 -103t-43 -104.5 t-103 -45.5t-103.5 42.5t-43.5 103.5z" glyph-name="ellipsis" horiz-adv-x="1959" unicode="…"/><glyph d="M415 1384q138 0 232 -98t94 -247.5t-94 -250t-233.5 -100.5t-233.5 99t-94 249t95.5 249t233.5 99zM2013 682q137 0 232.5 -99.5t95.5 -247.5t-95.5 -248.5t-232.5 -100.5t-231 98t-94 249t94 250t231 99zM1259 682q138 0 232 -99.5t94 -249t-94.5 -248.5t-232.5 -99 t-232 98t-94 249t94.5 250t232.5 99zM252 0l979 1372h190l-983 -1372h-186zM1259 526q-72 0 -116.5 -54t-44.5 -139t45 -141.5t116.5 -56.5t115.5 56.5t44 142.5t-44 139t-116 53zM414 838q72 0 116.5 58t44.5 142t-47.5 138.5t-115.5 54.5t-113 -53.5t-45 -140.5t44 -143 t116 -56zM2013.5 526q-71.5 0 -117 -54t-45.5 -138t45.5 -141.5t117 -57.5t116.5 56.5t45 141.5t-45 139t-116.5 54z" glyph-name="perthousand" horiz-adv-x="2426" unicode="‰"/><glyph d="M342 475q119 -94 283 -225v-205q-344 274 -516 414v33q76 61 247.5 201.5t264.5 213.5v-205q-185 -151 -279 -227z" glyph-name="guilsinglleft" horiz-adv-x="802" unicode="‹"/><glyph d="M197 252l280 225l-278 228v204q156 -133 514 -415v-33l-516 -416v207z" glyph-name="guilsinglright" horiz-adv-x="802" unicode="›"/><glyph d="M-365 0l922 1364h178q-846 -1251 -921 -1364h-179z" glyph-name="fraction" horiz-adv-x="368" unicode="⁄"/><glyph d="M760 -14q-221 0 -362.5 128t-182.5 369h-149v119h135q-2 25 -2 73t2 70h-135v121h149q49 246 192.5 377t354.5 131q123 0 262 -49v-217q-104 78 -240 78t-225.5 -86t-112.5 -234h451q0 -1 -16 -121h-453q-2 -23 -2 -71.5t2 -71.5h446q0 -25 -14 -119h-414 q25 -141 112.5 -228t225.5 -87t238 76l22 -207q-119 -51 -284 -51z" glyph-name="Euro" horiz-adv-x="1095" unicode="€"/><glyph d="M2118 297h-645v149h645v-149zM381 287q0 -168 6 -287h-231q4 84 4 293v739q0 233 -4 363h98l827 -963v596q0 217 -8 348h242q-8 -154 -8 -340v-747q0 -205 2 -297h-103l-825 969v-674zM1419 929.5q0 153.5 109.5 260t264.5 106.5t262.5 -106.5t107.5 -260t-107.5 -259 t-264.5 -105.5t-264.5 105.5t-107.5 259zM1791 1155q-87 0 -144.5 -70.5t-57.5 -159.5t57.5 -154.5t145.5 -65.5t144.5 64.5t56.5 160.5t-57.5 160.5t-144.5 64.5z" glyph-name="afii61352" horiz-adv-x="2193" unicode="№"/><glyph d="M764 1339q278 0 476 -196.5t198 -473.5t-195 -477t-473 -200t-473 195t-196 473t192 478.5t471 200.5zM766 106q229 0 388 164t159 392t-157 395.5t-386 167.5t-385 -163t-159 -391t154 -396.5t386 -168.5zM557 1010h236q131 0 203.5 -64.5t72.5 -175.5t-72.5 -175.5 t-208.5 -64.5h-86v-102q0 -94 5 -133h-150l2 100v420l-2 121v74zM702 897v-252h74q66 0 106 34t40 91t-39 92t-107 35h-74z" glyph-name="uni2117" horiz-adv-x="1550" unicode="℗"/><glyph d="M1214 741q0 63 -5 233.5t-5 174.5q0 -1 -182 -295h-43q-31 47 -88 145.5t-88 145.5v-4l-10 -400h-148q10 115 25 639h110q37 -63 111 -187t110 -185l211 372h117q23 -575 27 -639h-142zM571 1376v-125h-188v-350q0 -117 2 -160h-152q6 88 7 158v352h-181v125h512z" glyph-name="trademark" horiz-adv-x="1476" unicode="™"/><glyph d="M688 0h-287q-254 0 -321 -6v196q82 -6 256 -6h123q-147 88 -235.5 239.5t-88.5 311.5q0 305 210 503t510 198t505 -205t205 -496q0 -168 -92.5 -316.5t-235.5 -234.5h104q193 0 277 6v-196q-72 6 -342 6h-266v201q143 80 231 223t88 301q0 215 -139 365.5t-346 150.5 t-342 -152.5t-133 -363.5q2 -164 88 -304t231 -220v-201z" glyph-name="uni2126" horiz-adv-x="1695" unicode="Ω"/><glyph d="M356 639v-377q61 -111 197.5 -172t280.5 -61q289 0 475 215h139q-219 -260 -621 -260q-190 0 -361 78.5t-283.5 236.5t-112.5 358q0 293 226 485.5t535 192.5q201 0 369 -83t273.5 -243.5t111.5 -369.5h-1229zM1305 686v367q-41 102 -180 166.5t-287 64.5t-287 -61.5 t-195 -173.5v-363h949z" glyph-name="estimated" horiz-adv-x="1658" unicode="℮"/><glyph d="M1196 1364h178q-739 -1094 -923 -1364h-177zM473 1221v-527q0 -78 4 -119h-172v615q-31 -12 -96.5 -39t-93.5 -37l-25 129q152 61 297 127h88q-2 -39 -2 -149zM1391 564q-1 95 -133 95q-70 0 -148 -49q-5 29 -14 146q106 41 214 41t182.5 -52.5t74.5 -150.5 q0 -129 -156 -186q80 -18 130 -68.5t50 -122.5q0 -102 -82 -163.5t-214 -61.5t-214 37q8 70 13 141q66 -45 154 -45t126.5 30.5t38.5 80t-39 78t-94 28.5t-72 -2v125h41q66 0 104 26.5t38 72.5z" glyph-name="onethird" horiz-adv-x="1667" unicode="⅓"/><glyph d="M301 0l924 1364h178q-100 -143 -466 -690t-456 -674h-180zM1264 125q168 -1 168 115q0 54 -49.5 78t-155.5 24v125l41 -2q63 0 102 26.5t39 72.5q-1 95 -135 95q-72 0 -146 -49q-10 94 -14 146q106 43 214 43t182.5 -52.5t74.5 -150.5q0 -131 -158 -188 q80 -18 131.5 -67.5t51.5 -137.5t-83 -150.5t-212 -62.5t-215 39q12 87 12 141q66 -45 152 -45zM586 571h-535v119q254 226 293 298.5t39 117.5t-34.5 80t-108.5 35t-158 -64q-6 88 -14 156q112 55 230 55t191.5 -64.5t73.5 -183.5q0 -70 -31.5 -119t-54 -81t-117.5 -117 t-102 -90h172q86 0 156 6v-148z" glyph-name="twothirds" horiz-adv-x="1683" unicode="⅔"/><glyph d="M1032 582q0 104 73 164.5t187 60.5t186 -60.5t72 -154.5q0 -119 -125 -174q154 -57 154 -197q0 -98 -80 -163.5t-209 -65.5t-207.5 62.5t-78.5 162.5q0 139 149 199q-121 62 -121 166zM1341 1364l-923 -1364h-176q368 541 919 1364h180zM1289 344q-48 0 -84 -30.5 t-36 -76.5t36 -78t86 -32t85 30.5t35 75.5v7q0 45 -37 74.5t-85 29.5zM1391 580q0 41 -27 66.5t-72 25.5t-73.5 -25.5t-28.5 -66.5t33.5 -70t85.5 -37q82 31 82 107zM473 1223v-527q0 -80 4 -121h-172v617q-31 -12 -96.5 -39t-93.5 -37q-2 14 -25 129q104 39 297 127h88 q-2 -41 -2 -149z" glyph-name="oneeighth" horiz-adv-x="1677" unicode="⅛"/><glyph d="M1022 594q0 92 73.5 153.5t186.5 61.5t185.5 -61.5t72.5 -153.5q0 -123 -125 -174q154 -57 154 -197q0 -100 -80 -166.5t-208 -66.5t-207 64.5t-79 164.5q0 66 39 119t109 80q-121 61 -121 176zM1176 1364h180l-924 -1364h-178zM1159 237q0 -46 37 -78t86 -32t84 31.5 t35 77.5t-35 76t-88 34q-47 -4 -83 -33.5t-36 -75.5zM1382 582q0 39 -28.5 65.5t-72.5 26.5t-71.5 -26.5t-27.5 -67.5t33.5 -69t84.5 -36q82 33 82 107zM389 1139q1 94 -133 94q-72 0 -150 -47l-12 145q102 41 211 41t184.5 -53t75.5 -152q0 -127 -155 -184 q80 -20 130 -69.5t50 -122.5q0 -102 -83 -165t-214 -63t-213 41q4 14 7 71.5t5 67.5q66 -45 155 -45q165 0 165 111q0 59 -50.5 82.5t-156.5 23.5v125l43 -2q141 0 141 101z" glyph-name="threeeighths" horiz-adv-x="1667" unicode="⅜"/><glyph d="M1010 582q0 104 73.5 164.5t187.5 60.5t185.5 -60.5t71.5 -154.5q0 -119 -123 -174q154 -57 154 -197q0 -98 -80 -163.5t-209 -65.5t-208 62.5t-79 162.5q0 139 150 199q-123 62 -123 166zM302 557q-118 0 -228 41q6 47 14 141q62 -43 152 -43q172 0 172 123t-170 123 q-82 0 -131 -14q27 215 49 434h276q98 0 129 2q0 -6 -12 -147q-39 2 -115 2h-149q-12 -102 -21 -164q27 10 64 10q125 0 194.5 -62.5t69.5 -181.5t-88 -191.5t-206 -72.5zM238 0q368 539 921 1364h178q-739 -1094 -923 -1364h-176zM1269 344q-48 0 -84 -30.5t-36 -76.5 t36 -78t86 -32t85 30.5t35 75.5v7q0 45 -37 74.5t-85 29.5zM1370 580q0 41 -27.5 66.5t-71.5 25.5t-73 -25.5t-29 -66.5t34 -70t85 -37q82 31 82 107z" glyph-name="fiveeighths" horiz-adv-x="1656" unicode="⅝"/><glyph d="M1004 582q0 104 72.5 164.5t186.5 60.5t186.5 -60.5t72.5 -154.5q0 -119 -125 -174q154 -57 153 -197q0 -98 -79.5 -163.5t-208.5 -65.5t-208 62.5t-79 162.5q0 139 149 199q-120 62 -120 166zM1321 1364l-924 -1364h-176q369 541 920 1364h180zM242 1208q-76 0 -101 -2 q-2 55 -10 156h612q-92 -181 -378 -795h-181q37 70 76 151t236 490h-254zM1262 344q-49 0 -84 -30.5t-35 -76.5t34.5 -78t84.5 -32t86 30.5t36 75.5v7q0 45 -36.5 74.5t-85.5 29.5zM1362 580q0 41 -26.5 66.5t-72.5 25.5t-74 -25.5t-28 -66.5t34 -70t85 -37q82 31 82 107z " glyph-name="seveneighths" horiz-adv-x="1648" unicode="⅞"/><glyph d="M503 1272q-165 0 -300 -80l-43 184q166 88 362 88q266 0 425 -192t159 -528t-157.5 -547t-438.5 -211q-186 0 -311 125t-125 319t137 331.5t352 133.5q98 -2 164 -33t133 -90q4 12 4 49q0 186 -98 318.5t-263 132.5zM542 168q114 0 199.5 105.5t100.5 291.5 q-41 59 -116 99.5t-153 40.5q-127 0 -204.5 -77.5t-77.5 -195.5t68.5 -191t182.5 -73z" glyph-name="partialdiff" horiz-adv-x="1208" unicode="∂"/><glyph d="M1313 0h-1299q80 160 121 259t252 598t229 540h91l460 -1080q89 -208 146 -317zM328 190h651l-326 848q-182 -488 -325 -848z" glyph-name="uni2206" horiz-adv-x="1339" unicode="∆"/><glyph d="M1225 1079v-938q0 -207 4 -379h-242q4 90 4 381v1008h-588v-1008q0 -289 5 -381h-244q6 172 6 381v936h-131l-2 297h1360q-31 -156 -64 -297h-108z" glyph-name="product" horiz-adv-x="1419" unicode="∏"/><glyph d="M899 -287h-868l522 842q-442 717 -506 821h694q289 0 396 4q-27 -141 -39 -192q-319 6 -338 6h-336q129 -211 383 -629q-274 -451 -414 -671h541l199 4v-193q-99 8 -234 8z" glyph-name="summation" horiz-adv-x="1216" unicode="∑"/><glyph d="M94 418v184h889v-184h-889z" glyph-name="minus" horiz-adv-x="1075" unicode="−"/><glyph d="M78 674l368 141l308 -844l417 1692h205l-491 -1931h-254l-330 825l-170 -65z" glyph-name="radical" horiz-adv-x="1400" unicode="√"/><glyph d="M1509 625q0 -143 -97 -246t-245 -103q-106 0 -194 54.5t-178 167.5q-94 -115 -181.5 -168.5t-193.5 -53.5q-145 0 -239.5 101t-94.5 247t100.5 244.5t245.5 98.5q109 0 197 -54.5t178 -164.5q90 106 174 162.5t193 56.5q145 0 240 -99.5t95 -242.5zM270 620.5 q0 -75.5 47.5 -125t114.5 -49.5t134 48.5t118 123.5q-6 8 -48 55.5t-61.5 65t-60 39t-96.5 21.5t-102 -51.5t-46 -127zM1151 446q68 0 113 51.5t45 127t-46 126t-112 49.5t-132.5 -58t-117.5 -121q74 -92 128 -133.5t122 -41.5z" glyph-name="infinity" horiz-adv-x="1593" unicode="∞"/><glyph d="M600 1612q76 0 125 -25q0 -23 -5 -92.5t-5 -77.5q-39 20 -94 21q-92 0 -122 -85t-30 -253l20 -918q0 -295 -67.5 -435t-261.5 -140q-86 0 -144 26q0 62 11 177q49 -25 104 -25q106 0 127 95t21 235l-19 993q0 252 80 378t260 126z" glyph-name="integral" horiz-adv-x="776" unicode="∫"/><glyph d="M739 817q96 0 148 111q84 -20 145 -39q-23 -104 -104.5 -175t-187.5 -71t-220 63.5t-166 63.5q-102 0 -153 -106q-90 25 -138 34q29 111 108 178.5t181 67.5t218 -63.5t169 -63.5zM746 240q-100 0 -223.5 62.5t-170.5 62.5q-102 0 -151 -107q-90 25 -138 35 q29 111 108 178.5t179 67.5t216 -62.5t173 -62.5q96 0 148 108q102 -25 145 -37q-23 -106 -104.5 -175.5t-181.5 -69.5z" glyph-name="approxequal" horiz-adv-x="1097" unicode="≈"/><glyph d="M96 242v176h322l117 213h-439v172h535q78 131 110 194h158l-108 -194h213v-172h-306l-118 -213h424v-176h-519q-61 -102 -106 -191h-162l107 191h-228z" glyph-name="notequal" horiz-adv-x="1107" unicode="≠"/><glyph d="M985 461v-207l-889 434v92q92 45 436.5 215t452.5 222v-205l-625 -277zM96 0v176h905v-176h-905z" glyph-name="lessequal" horiz-adv-x="1097" unicode="≤"/><glyph d="M106 1016v205l889 -435v-92l-889 -436v207l623 274zM997 176v-176h-891v176h891z" glyph-name="greaterequal" horiz-adv-x="1097" unicode="≥"/><glyph d="M1051 670l-447 -690h-80l-444 690q43 72 220 342t224 350h80zM565 1083l-250 -413l248 -418l250 420q-242 399 -248 411z" glyph-name="lozenge" horiz-adv-x="1130" unicode="◊"/><glyph d="M59 782v179h156v118q0 188 87 294t251 106q74 0 205 -29l-31 -180q-55 28 -133 28t-120 -59t-42 -152v-126h240l-33 -179h-207v-575q0 -152 4 -207h-225q4 176 4 207v575h-156zM770 207v543q0 139 -8 211h237q-6 -74 -6 -207v-547q0 -141 6 -207h-235q6 74 6 207z" glyph-name="uniFB01" horiz-adv-x="1099" unicode="ﬁ"/><glyph d="M57 782v179h158v118q0 188 87 294t251 106q68 0 205 -29l-31 -180q-55 28 -134 28t-120 -59t-41 -152v-126h240l-33 -179h-207v-575q0 -152 2 -207h-223q4 176 4 207v575h-158zM1130 1280v-1073q0 -166 5 -207h-224q4 41 4 207v1136h-96l58 125h260q-7 -41 -7 -188z" glyph-name="uniFB02" horiz-adv-x="1234" unicode="ﬂ"/><glyph glyph-name="glyph555" horiz-adv-x="460"/><glyph d="M375 750v-644q0 -299 -73 -440t-271 -141h-160v182h123q160 0 160 262v779q0 147 -9 213h236q-6 -72 -6 -211z" glyph-name="glyph556" horiz-adv-x="526"/><glyph d="M551 1243l-86 143h248q53 -127 231 -533.5t236 -545.5t149 -307h-268q-6 18 -141 352h-529q-14 -37 -68.5 -169.5t-68.5 -182.5h-240q78 160 160 354zM461 526h387l-195 502z" glyph-name="glyph557"/><glyph d="M1231 729v-676q-223 -76 -408 -76q-319 0 -524 194t-205 506t206 516t531 204q186 0 361 -60v-227q-162 88 -350 88q-227 0 -368.5 -142.5t-141.5 -363.5t137 -370.5t360 -149.5q113 0 183 35v346h-183q-35 0 -112 -4q5 81 18 180h496z" glyph-name="glyph558" horiz-adv-x="1388"/><glyph d="M453 1022v-555q0 -487 -398 -487q-72 0 -174 24v209q63 -39 160 -39q180 0 180 236v612q0 260 -6 354h242q-4 -151 -4 -354z" glyph-name="glyph559" horiz-adv-x="618"/><glyph d="M805 -23q-305 0 -508 203t-203 506t204 507t506 204t507 -206t205 -505q0 -172 -71 -319.5t-196 -245.5q87 -99 148 -154t101 -90t46 -41h-287q-72 90 -161 197q-144 -56 -291 -56zM1278 686q0 221 -134 368.5t-338 147.5t-339 -146.5t-135 -370.5t134 -370.5t339 -146.5 q74 0 147 25q-125 135 -227 221h262l115 -133q82 68 129 174t47 231z" glyph-name="glyph560" horiz-adv-x="1613"/><glyph d="M1905 1376l-492 -1380h-162q-25 72 -131.5 395.5t-165.5 497.5l-299 -893h-159q-16 45 -233.5 641t-266.5 739h242q55 -162 156.5 -468t146.5 -441q25 -55 53 -113q211 649 334 1022h71q181 -533 344 -1016l19 46q20 45 29 67q57 170 152 482.5t130 420.5h232z" glyph-name="glyph561" horiz-adv-x="1918"/><glyph d="M94 -508q-66 0 -192 27q4 29 15 87t15 87q47 -29 128 -29t122 59.5t41 151.5l-8 907h-158v179h158v118q0 193 94 295.5t264 102.5q74 0 185 -29q-29 -172 -31 -180q-49 28 -129 28t-124 -61t-44 -150v-124h242q-25 -119 -33 -179h-209l10 -829q0 -225 -82 -343t-264 -118 z" glyph-name="glyph562" horiz-adv-x="704"/><glyph d="M369 713v-506q0 -141 6 -207h-238q8 63 8 207v624h-96l62 127h260q-2 -70 -2 -245zM129 1253.5q0 53.5 38 91t91 37.5t92 -37.5t39 -91t-39 -91.5t-92 -38t-91 38t-38 91.5z" glyph-name="glyph563" horiz-adv-x="512"/><glyph d="M-6 -293q160 0 160 262v862h-95l60 127h262q-6 -74 -6 -225v-678q0 -276 -75 -403t-269 -127h-158q19 70 41 182h80zM137 1253.5q0 53.5 37 91t91 37.5t92 -37.5t38 -91t-38 -91.5t-92 -38t-91 38t-37 91.5z" glyph-name="glyph564" horiz-adv-x="526"/><glyph d="M416 782v-782h-221v782h-148v176h148v230q37 6 111.5 16t111.5 17q-2 -59 -2 -183v-80h270q-12 -52 -31 -176h-239z" glyph-name="glyph565" horiz-adv-x="755"/><glyph d="M553 299q65 168 82 205l-197 454h180q84 -209 101 -251q10 29 94 251h174q-108 -250 -192 -440q10 -25 88 -219q270 551 321 659h236q-14 -21 -233.5 -454.5t-264.5 -521.5h-82q-100 228 -145 340l-148 -340h-82q-16 31 -244.5 494.5t-238.5 481.5h238q32 -72 100 -208 t213 -451z" glyph-name="glyph566" horiz-adv-x="1460"/><glyph d="M1030 958l-627 -1417h-217q41 74 129 261.5t109 238.5q-45 106 -222 496.5t-192 420.5h262q29 -76 119 -302t144 -365q14 41 71.5 192.5t106.5 285.5t71 189h246z" glyph-name="glyph567" horiz-adv-x="1044"/><glyph d="M1239 360l426 1016h240q-6 -16 -20.5 -48t-40.5 -90t-46 -104t-142 -324t-232.5 -530.5t-125.5 -283.5h-75q-135 295 -271 596q-236 -516 -274 -596h-76q-85 196 -323 736t-283 644h244q72 -170 214 -508t214 -508q87 212 180 449q-14 33 -256 567h225q100 -256 133 -336 q68 160 137 336h226q-26 -61 -260 -567q154 -368 186 -449z" glyph-name="glyph568" horiz-adv-x="1906"/><glyph d="M358 743v-176q0 -278 50.5 -339.5t141.5 -61.5t155.5 50t80.5 126v446q0 119 -4 173h236q-6 -90 -6 -201v-557q0 -117 20 -203h-198q-6 23 -15.5 67t-13.5 62q-96 -143 -305 -143q-156 0 -261.5 97t-105.5 296v455h-92q41 82 59 127h262q-4 -143 -4 -218z" glyph-name="glyph569" horiz-adv-x="1103"/><glyph d="M311 -219v18q0 53 -14 99q55 6 227 30q14 -45 15 -108q0 -189 -170 -365q-25 8 -76 22.5t-78 22.5q96 143 96 281zM416 367q0 -199 126 -199q64 0 113 29q13 -78 35 -166q-76 -47 -215 -47q-280 0 -280 387v411h-148v179h148v210q75 15 225 50q-4 -115 -4 -189v-71h270 l-31 -179h-239v-415z" glyph-name="glyph570" horiz-adv-x="755"/><glyph d="M430 -242v19q0 49 -12 98q47 6 225 31q14 -45 14 -109q0 -188 -170 -364q-93 26 -151 45q94 141 94 280zM385 1048q0 -72 53.5 -126t186.5 -136t194 -149q106 -117 107 -264q0 -182 -131 -291t-331 -109t-368 78q35 142 54 215q117 -111 299 -110q90 0 159.5 53t69.5 135 q0 131 -224 260t-266.5 227.5t-42.5 176.5q0 178 119.5 284.5t297.5 106.5t304 -58v-213q-109 88 -276 89q-90 0 -147.5 -48.5t-57.5 -120.5z" glyph-name="glyph571" horiz-adv-x="1036"/><glyph d="M326 713q0 -41 42 -74t101 -61.5t119.5 -63.5t102.5 -100.5t42 -153.5q0 -133 -97 -208t-270 -75t-290 66q18 102 39 193q117 -94 245 -95q68 0 112 34t44 77t-42 78t-102.5 64.5t-119.5 67.5t-101 101.5t-42 145.5q0 123 92 196.5t254 73.5q106 0 241 -45v-191 q-117 72 -231 72q-47 0 -93 -30.5t-46 -71.5zM324 -207q0 51 -13 98q51 6 226 31q14 -43 14 -108q0 -189 -170 -365q-25 8 -76 22.5t-76 22.5q94 145 95 283v16z" glyph-name="glyph572" horiz-adv-x="821"/><glyph d="M569.5 1378q225.5 0 351.5 -196.5t126 -502.5t-126.5 -500.5t-352.5 -194.5t-350 194.5t-124 503.5t125 502.5t350.5 193.5zM330 679q0 -243 61 -377t177 -134t179.5 136t63.5 375t-63.5 375t-179.5 136t-177 -134t-61 -377z" glyph-name="glyph573" horiz-adv-x="1148"/><glyph d="M715 211q0 -162 4 -211h-234q4 82 4 213v903q-170 -70 -278 -123q-3 24 -9.5 53t-13.5 69t-12 61q287 123 426 194h113v-1159z" glyph-name="glyph574" horiz-adv-x="1013"/><glyph d="M131 0v137q260 227 426 453q78 104 111.5 174t33.5 172t-69.5 167.5t-186.5 65.5q-199 0 -292 -112v237q127 82 337 82t328.5 -111.5t118.5 -314.5t-186 -432q-113 -139 -295 -323h260q152 0 268 10v-205h-854z" glyph-name="glyph575" horiz-adv-x="1085"/><glyph d="M418 580q104 0 176 56t72 145t-58.5 143.5t-156.5 54.5q-150 0 -275 -84v207q146 68 322 68t287.5 -95.5t111.5 -259.5q0 -109 -62.5 -188.5t-177.5 -120.5q129 -35 204 -124t75 -208q0 -180 -128 -288.5t-345 -108.5q-168 0 -291 47v205q106 -63 240 -63t205 65t71 174 q0 20 -6 35q-12 74 -82 118.5t-152 44.5t-118 -4v183l41 -2h47z" glyph-name="glyph576" horiz-adv-x="1101"/><glyph d="M614 -182q7 27 9 162v208h-574v111q72 94 234 299t276.5 352.5t188.5 239.5h92v-836q164 0 221 4v-172q-49 2 -221 2v-206q0 -84 10 -164h-236zM623 354q0 315 2 471q-158 -215 -176 -239t-173 -232h347z" glyph-name="glyph577" horiz-adv-x="1105"/><glyph d="M438 -225q-168 0 -303 57v211q115 -76 253 -76t223 67.5t85 180.5q0 18 -6 37q-12 92 -91 149.5t-213 57.5t-208 -27q2 14 33 320t37 405q94 -4 160 -4h294q20 0 193 6v-203q-115 4 -195 5h-272q-8 -55 -21.5 -191.5t-15.5 -148.5q47 10 101 10q205 0 326.5 -112.5 t121.5 -302.5t-141.5 -315.5t-360.5 -125.5z" glyph-name="glyph578" horiz-adv-x="1085"/><glyph d="M606 868q178 0 299 -129t121 -317t-137 -312q-137 -126 -337 -126t-337 132t-137 324q0 138 68 270t346 472q127 158 147 192h252q-97 -96 -201 -227l-252 -313q4 -4 4 -7q61 41 164 41zM803 424q0 102 -74 181q-73 79 -181 79t-178 -73t-69 -181q0 -108 72 -184t179 -76 t179 76t72 178z" glyph-name="glyph579" horiz-adv-x="1099"/><glyph d="M307 1174h486q43 0 110.5 1t93.5 1q-10 -23 -43.5 -94.5t-63.5 -141.5t-240 -542t-261 -582h-248q23 31 52 91t43 83q159 332 450 985h-412q-106 0 -170 -6q0 76 -14 209q55 -4 217 -4z" glyph-name="glyph580" horiz-adv-x="1060"/><glyph d="M145 1014q0 158 120 260t298 102t294 -102.5t116 -247.5q0 -195 -207 -309q117 -49 183.5 -137t66.5 -203q0 -172 -130 -281.5t-328 -109.5t-326 105.5t-128 275.5q0 115 67 207t181 139q-207 100 -207 301zM330 390q0 -93 64.5 -154.5t164.5 -61.5t167 61.5t67 154.5 t-73 154.5t-185 84.5q-88 -18 -146.5 -82t-58.5 -157zM362 1003.5q0 -81.5 60.5 -137t159.5 -71.5q76 18 125 75.5t49 135.5t-55.5 133t-141.5 55t-141.5 -54.5t-55.5 -136z" glyph-name="glyph581" horiz-adv-x="1118"/><glyph d="M658 356q-1 0 -1 2q-68 -39 -163 -39q-180 0 -300 129.5t-120 314.5t139 314t336 129t335 -134t138 -324q0 -130 -66 -264t-272 -388q-207 -254 -221 -280h-256q72 65 201 225l251 313q0 2 -1 2zM799 758q0 108 -73 184t-180 76t-179 -76t-72 -180.5t74.5 -181t179 -76.5 t177.5 73t73 181z" glyph-name="glyph582" horiz-adv-x="1093"/></font>
</defs>
</svg>
